Loading...
Error

(Trance, Hard Trance, Tech Trance) CJ Stone - Into The Sea (Maxi-Single) (2001) [FLAC (Tracks+.Cue), Lossless]

Статистика раздачи
Размер:  281 MB   |    Зарегистрирован:  4 года 5 месяцев   |    Скачан:  6 раз

Полного источника не было: 1 год 6 месяцев

Сидов:  0  |  0 KB/s  ]   Личеров:  0  |  0 KB/s  ]

* - сиды/пиры с внешних источников

   
 
Автор Сообщение

Бишеп Пол:Муж

11-Апр-2018 16:11

CJ Stone - Into The Sea

Жанр: Trance, Hard Trance, Tech Trance
Год выпуска: 2001
Источник: CD
Производитель диска: Kontor Records ‎– Kontor192/KONTOR 192/0134975 KON
Аудиокодек: FLAC
Тип рипа: Tracks+.CUE
Битрейт аудио: lossless
Продолжительность: 00:37:35


Треклист:
01. Into The Sea (Moonrise Edit) (3:30)
02. Into The Sea (Original Edit) (3:34)
03. Into The Sea (Green Court Remix) (7:52)
04. Into The Sea (CJ Stone's Moonrise Mix) (6:38)
05. Into The Sea (Original Mix) (7:17)
06. Into The Sea (Marc et Claude's Think Different Remix) (8:44)

Код:

Exact Audio Copy V1.0 beta 1 from 15. November 2010

EAC extraction logfile from 5. December 2010, 20:34

CJ Stone / Into The Sea

Used drive  : PLEXTOR DVDR   PX-760A   Adapter: 3  ID: 0

Read mode               : Secure
Utilize accurate stream : Yes
Defeat audio cache      : Yes
Make use of C2 pointers : No

Read offset correction                      : 30
Overread into Lead-In and Lead-Out          : No
Fill up missing offset samples with silence : Yes
Delete leading and trailing silent blocks   : No
Null samples used in CRC calculations       : Yes
Used interface                              : Installed external ASPI interface
Gap handling                                : Appended to previous track

Used output format              : User Defined Encoder
Selected bitrate                : 128 kBit/s
Quality                         : High
Add ID3 tag                     : Yes
Command line compressor         : C:\Program Files\Exact Audio Copy\Flac\flac.exe
Additional command line options : -8 -V -T "ARTIST=%a" -T "TITLE=%t" -T "ALBUM=%g" -T "DATE=%y" -T "TRACKNUMBER=%n" -T "GENRE=%m" -T "COMMENT=ripped by DrStandBy" %s

TOC of the extracted CD

     Track |   Start  |  Length  | Start sector | End sector
    ---------------------------------------------------------
        1  |  0:00.00 |  3:30.20 |         0    |    15769   
        2  |  3:30.20 |  3:33.45 |     15770    |    31789   
        3  |  7:03.65 |  7:51.67 |     31790    |    67181   
        4  | 14:55.57 |  6:38.25 |     67182    |    97056   
        5  | 21:34.07 |  7:17.13 |     97057    |   129844   
        6  | 28:51.20 |  8:43.52 |    129845    |   169121   

Track  1

     Filename E:\CJ Stone\2001 - CJ Stone - Into The Sea (Kontor192)\01. CJ Stone - Into The Sea (Moonrise Edit).wav

     Pre-gap length  0:00:02.00

     Peak level 99.9 %
     Extraction speed 2.1 X
     Track quality 100.0 %
     Test CRC 666F4A1B
     Copy CRC 666F4A1B
     Accurately ripped (confidence 4)  [235598AB]
     Copy OK

Track  2

     Filename E:\CJ Stone\2001 - CJ Stone - Into The Sea (Kontor192)\02. CJ Stone - Into The Sea (Original Edit).wav

     Peak level 99.9 %
     Extraction speed 2.1 X
     Track quality 100.0 %
     Test CRC 5C3F43A8
     Copy CRC 5C3F43A8
     Accurately ripped (confidence 4)  [A6502D31]
     Copy OK

Track  3

     Filename E:\CJ Stone\2001 - CJ Stone - Into The Sea (Kontor192)\03. CJ Stone - Into The Sea (Green Court Remix).wav

     Peak level 99.4 %
     Extraction speed 2.3 X
     Track quality 100.0 %
     Test CRC FD81C630
     Copy CRC FD81C630
     Accurately ripped (confidence 4)  [B5C62B3A]
     Copy OK

Track  4

     Filename E:\CJ Stone\2001 - CJ Stone - Into The Sea (Kontor192)\04. CJ Stone - Into The Sea (CJ Stone's Moonrise Mix).wav

     Peak level 99.9 %
     Extraction speed 2.3 X
     Track quality 100.0 %
     Test CRC 069A0565
     Copy CRC 069A0565
     Accurately ripped (confidence 4)  [0554058B]
     Copy OK

Track  5

     Filename E:\CJ Stone\2001 - CJ Stone - Into The Sea (Kontor192)\05. CJ Stone - Into The Sea (Original Mix).wav

     Peak level 99.9 %
     Extraction speed 2.3 X
     Track quality 100.0 %
     Test CRC 34C088B5
     Copy CRC 34C088B5
     Accurately ripped (confidence 4)  [BB3C6B41]
     Copy OK

Track  6

     Filename E:\CJ Stone\2001 - CJ Stone - Into The Sea (Kontor192)\06. CJ Stone - Into The Sea (Marc et Claude's Think Different Remix).wav

     Pre-gap length  0:00:01.03

     Peak level 97.5 %
     Extraction speed 2.3 X
     Track quality 100.0 %
     Test CRC 0A1E482D
     Copy CRC 0A1E482D
     Accurately ripped (confidence 4)  [57AD45F5]
     Copy OK

All tracks accurately ripped

No errors occurred

End of status report

==== Log checksum 4EBA63BCCF6847B070E2B2C0BDD9304B4057796464FB157E5ADCBE33B32E9C08 ====

Код:

REM GENRE Trance
REM DATE 2001
REM DISCID 4A08CE06
REM COMMENT "ExactAudioCopy v1.0b1"
PERFORMER "CJ Stone"
TITLE "Into The Sea"
FILE "01. CJ Stone - Into The Sea (Moonrise Edit).wav" WAVE
  TRACK 01 AUDIO
    TITLE "Into The Sea (Moonrise Edit)"
    PERFORMER "CJ Stone"
    INDEX 01 00:00:00
FILE "02. CJ Stone - Into The Sea (Original Edit).wav" WAVE
  TRACK 02 AUDIO
    TITLE "Into The Sea (Original Edit)"
    PERFORMER "CJ Stone"
    INDEX 01 00:00:00
FILE "03. CJ Stone - Into The Sea (Green Court Remix).wav" WAVE
  TRACK 03 AUDIO
    TITLE "Into The Sea (Green Court Remix)"
    PERFORMER "CJ Stone"
    INDEX 01 00:00:00
FILE "04. CJ Stone - Into The Sea (CJ Stone's Moonrise Mix).wav" WAVE
  TRACK 04 AUDIO
    TITLE "Into The Sea (CJ Stone's Moonrise Mix)"
    PERFORMER "CJ Stone"
    INDEX 01 00:00:00
FILE "05. CJ Stone - Into The Sea (Original Mix).wav" WAVE
  TRACK 05 AUDIO
    TITLE "Into The Sea (Original Mix)"
    PERFORMER "CJ Stone"
    INDEX 01 00:00:00
  TRACK 06 AUDIO
    TITLE "Into The Sea (Marc et Claude's Think Different Remix)"
    PERFORMER "CJ Stone"
    INDEX 00 07:16:10
FILE "06. CJ Stone - Into The Sea (Marc et Claude's Think Different Remix).wav" WAVE
    INDEX 01 00:00:00

Этот торрент недоступен для скачивания без регистрации, однако доступен по публичной magnet-ссылке (источники с публичных трекеров). Перед использованием ссылки прочтите, пожалуйста Пользовательское соглашение, а также как можно дольше оставайтесь на раздаче! Для того, чтобы скачать сам торрент-файл (который видит больше источников), а также для того, чтобы поблагодарить релизера, вам необходимо зарегистрироваться. Если регистрироваться лень - вы можете также попробовать скачать релиз по нашим партнерским ссылкам ниже. Кроме того, зарегистрированным пользователям не показывается всплывающая реклама при скачивании.

[underverse.me].t102054.torrent
Трекер: Зарегистрирован   [ 11.04.2018 16:11 ]  
Статус: проверено (by Бишеп at 11.04.2018 16:11)
Поблагодарили: пока никто не поблагодарил...
Тип торрента: публичный - доступные источники с открытых трекеров: 
Размер: 281 MB (занимает 0.06 DVDR, для записи нужно 1 болванка DVDR/RW)
 
 

Яндекс.Метрика powered by Sphinx


В Н И М А Н И Е
Сайт не распространяет и не хранит электронные версии произведений, а лишь бесплатно и без коммерческой выгоды (не требуя взамен платы,
SMS и т.д.) предоставляет доступ к создаваемому пользователями каталогу ссылок на торрент-файлы, которые содержат только списки хеш-сумм.
Убедительная просьба с жалобами обращаться напрямую к пользователю, разместившему торрент файл.

Вверх