Loading...
Error

(Trance, Progressive Trance, Downtempo) Above & Beyond - Group Therapy (2011) [FLAC (Tracks+.Cue), Lossless]

Статистика раздачи
Размер:  483 MB   |    Зарегистрирован:  4 года 5 месяцев   |    Скачан:  4 раза

Полного источника не было: 6 месяцев

Сидов:  0  |  0 KB/s  ]   Личеров:  0  |  0 KB/s  ]

* - сиды/пиры с внешних источников

   
 
Автор Сообщение

Бишеп Пол:Муж

11-Апр-2018 16:23

Above & Beyond - Group Therapy

Жанр: Trance, Progressive Trance, Downtempo
Год выпуска: 2011
Источник: CD
Производитель диска: Anjunabeats - ANJCD024
Аудиокодек: FLAC
Тип рипа: Tracks+.CUE
Битрейт аудио: lossless
Продолжительность: 01:08:53


Треклист:
01. Filmic [3:49]
02. Alchemy [5:17]
03. Sun & Moon [5:26]
04. You Got To Go [5:35]
05. Black Room Boy [6:10]
06. Giving It Out [3:53]
07. On My Way To Heaven [5:58]
08. Prelude [5:45]
09. Sun In Your Eyes [4:51]
10. Love is Not Enough [6:33]
11. Every Little Beat [6:01]
12. Sweetest Heart [3:37]
13. Thing Called Love [5:29]
14. Only a Few Things [5:03]
15. Eternal [2:53]

Код:

Exact Audio Copy V1.0 beta 3 from 29. August 2011

Отчёт EAC об извлечении, выполненном 3. июня 2012, 11:17

Above & Beyond / Group Therapy

Дисковод: TSSTcorpCD/DVDW SH-W162C   Adapter: 3  ID: 0

Режим чтения                 : Достоверность
Использование точного потока : Да
Отключение кэша аудио        : Да
Использование указателей C2  : Нет

Коррекция смещения при чтении                     : 6
Способность читать области Lead-in и Lead-out     : Нет
Заполнение пропущенных сэмплов тишиной            : Да
Удаление блоков с тишиной в начале и конце        : Нет
При вычислениях CRC использовались нулевые сэмплы : Да
Интерфейс                                         : Установленный внешний ASPI-интерфейс
Обработка зазоров                                 : Добавлено к предыдущему треку

Выходной формат          : Пользовательский кодировщик
Выбранный битрейт        : 1024 kBit/s
Качество                 : Высокий
Добавление ID3-тега      : Нет
Утилита сжатия           : C:\Program Files\FLAC\flac.exe
Дополнительные параметры : -6 -V -T "ARTIST=%artist%" -T "TITLE=%title%" -T "ALBUM=%albumtitle%" -T "DATE=%year%" -T "TRACKNUMBER=%tracknr%" -T "GENRE=%genre%" -T "COMMENT=%comment%" %hascover%--picture="%coverfile%"%hascover% %source% -o %dest%

TOC извлечённого CD

     Трек |   Старт  | Длительность | Начальный сектор | Конечный сектор
    ---------------------------------------------------------------------
       1  |  0:00.00 |    3:49.27   |           0      |      17201     
       2  |  3:49.27 |    5:17.33   |       17202      |      41009     
       3  |  9:06.60 |    5:26.20   |       41010      |      65479     
       4  | 14:33.05 |    5:34.55   |       65480      |      90584     
       5  | 20:07.60 |    6:10.25   |       90585      |     118359     
       6  | 26:18.10 |    3:53.17   |      118360      |     135851     
       7  | 30:11.27 |    5:58.28   |      135852      |     162729     
       8  | 36:09.55 |    5:45.20   |      162730      |     188624     
       9  | 41:55.00 |    4:51.02   |      188625      |     210451     
      10  | 46:46.02 |    6:33.28   |      210452      |     239954     
      11  | 53:19.30 |    6:01.20   |      239955      |     267049     
      12  | 59:20.50 |    3:36.57   |      267050      |     283306     
      13  | 62:57.32 |    5:29.25   |      283307      |     308006     
      14  | 68:26.57 |    5:03.00   |      308007      |     330731     
      15  | 73:29.57 |    2:53.23   |      330732      |     343729     

Трек  1

     Имя файла M:\01. Above & Beyond - Filmic.wav

     Длина предзазора  0:00:02.00

     Пиковый уровень 100.0 %
     Скорость извлечения 4.8 X
     Качество трека 100.0 %
     CRC теста 969F5247
     CRC копии 969F5247
     Точное извлечение (достоверность 2)  [45CA3434]  (AR v2)
     Копирование... OK

Трек  2

     Имя файла M:\02. Above & Beyond - Alchemy.wav

     Пиковый уровень 67.9 %
     Скорость извлечения 5.4 X
     Качество трека 100.0 %
     CRC теста 341BBFEB
     CRC копии 341BBFEB
     Точное извлечение (достоверность 2)  [A66E5291]  (AR v2)
     Копирование... OK

Трек  3

     Имя файла M:\03. Above & Beyond - Sun & Moon.wav

     Пиковый уровень 69.1 %
     Скорость извлечения 6.0 X
     Качество трека 100.0 %
     CRC теста 0A77A735
     CRC копии 0A77A735
     Точное извлечение (достоверность 2)  [88940DB4]  (AR v2)
     Копирование... OK

Трек  4

     Имя файла M:\04. Above & Beyond - You Got to Go.wav

     Пиковый уровень 60.1 %
     Скорость извлечения 6.6 X
     Качество трека 100.0 %
     CRC теста C0AC74BF
     CRC копии C0AC74BF
     Точное извлечение (достоверность 2)  [F53798C3]  (AR v2)
     Копирование... OK

Трек  5

     Имя файла M:\05. Above & Beyond - Black Room Boy (feat. Tony McGuinness & Richard Bedford).wav

     Пиковый уровень 56.5 %
     Скорость извлечения 7.1 X
     Качество трека 100.0 %
     CRC теста B934CC1A
     CRC копии B934CC1A
     Точное извлечение (достоверность 2)  [4370551D]  (AR v2)
     Копирование... OK

Трек  6

     Имя файла M:\06. Above & Beyond - Giving It Out (feat. Zoë Johnston).wav

     Пиковый уровень 58.1 %
     Скорость извлечения 7.1 X
     Качество трека 100.0 %
     CRC теста 80F2188C
     CRC копии 80F2188C
     Точное извлечение (достоверность 2)  [D7196D87]  (AR v2)
     Копирование... OK

Трек  7

     Имя файла M:\07. Above & Beyond - On My Way to Heaven (feat. Richard Bedford).wav

     Пиковый уровень 64.9 %
     Скорость извлечения 7.8 X
     Качество трека 100.0 %
     CRC теста 33B11183
     CRC копии 33B11183
     Точное извлечение (достоверность 2)  [868EE84B]  (AR v2)
     Копирование... OK

Трек  8

     Имя файла M:\08. Above & Beyond - Prelude.wav

     Пиковый уровень 64.7 %
     Скорость извлечения 7.5 X
     Качество трека 99.9 %
     CRC теста 8315B97F
     CRC копии 8315B97F
     Точное извлечение (достоверность 2)  [B0E3E0BA]  (AR v2)
     Копирование... OK

Трек  9

     Имя файла M:\09. Above & Beyond - Sun in Your Eyes.wav

     Пиковый уровень 82.8 %
     Скорость извлечения 8.4 X
     Качество трека 100.0 %
     CRC теста 28F5D8F8
     CRC копии 28F5D8F8
     Точное извлечение (достоверность 2)  [A8913F26]  (AR v2)
     Копирование... OK

Трек 10

     Имя файла M:\10. Above & Beyond - Love Is Not Enough.wav

     Пиковый уровень 63.8 %
     Скорость извлечения 8.2 X
     Качество трека 99.9 %
     CRC теста 9557CE11
     CRC копии 9557CE11
     Точное извлечение (достоверность 2)  [81A8302E]  (AR v2)
     Копирование... OK

Трек 11

     Имя файла M:\11. Above & Beyond - Every Little Beat (feat. Richard Bedford).wav

     Пиковый уровень 69.8 %
     Скорость извлечения 9.2 X
     Качество трека 100.0 %
     CRC теста 92271422
     CRC копии 92271422
     Точное извлечение (достоверность 2)  [FDF2FA54]  (AR v2)
     Копирование... OK

Трек 12

     Имя файла M:\12. Above & Beyond - Sweetest Heart (feat. Zoë Johnston).wav

     Пиковый уровень 65.7 %
     Скорость извлечения 7.8 X
     Качество трека 99.9 %
     CRC теста 1EA2FB74
     CRC копии 1EA2FB74
     Точное извлечение (достоверность 2)  [DABE1254]  (AR v2)
     Копирование... OK

Трек 13

     Имя файла M:\13. Above & Beyond - Thing Called Love (feat. Richard Bedford).wav

     Пиковый уровень 62.5 %
     Скорость извлечения 8.7 X
     Качество трека 99.9 %
     CRC теста 548A182F
     CRC копии 548A182F
     Точное извлечение (достоверность 2)  [F4136F33]  (AR v2)
     Копирование... OK

Трек 14

     Имя файла M:\14. Above & Beyond - Only a Few Things.wav

     Пиковый уровень 91.4 %
     Скорость извлечения 9.8 X
     Качество трека 100.0 %
     CRC теста 8DB1242D
     CRC копии 8DB1242D
     Точное извлечение (достоверность 2)  [E74087A9]  (AR v2)
     Копирование... OK

Трек 15

     Имя файла M:\15. Above & Beyond - Eternal.wav

     Пиковый уровень 100.0 %
     Скорость извлечения 7.7 X
     Качество трека 99.9 %
     CRC теста 25C1EDBC
     CRC копии 25C1EDBC
     Точное извлечение (достоверность 2)  [777C3250]  (AR v2)
     Копирование... OK

Все треки извлечены точно

Ошибок не произошло

Конец отчёта

==== Контрольная сумма отчёта 5EE8CC778BB742D7C007BCA5DB9634F8A62A8860EC8334F4723AD82D4E2CACC7 ====

Код:

REM DATE 2011
REM DISCID C711E70F
REM COMMENT "ExactAudioCopy v1.0b3"
PERFORMER "Above & Beyond"
TITLE "Group Therapy"
FILE "01. Above & Beyond - Filmic.wav" WAVE
  TRACK 01 AUDIO
    TITLE "Filmic"
    PERFORMER "Above & Beyond"
    FLAGS DCP
    INDEX 01 00:00:00
FILE "02. Above & Beyond - Alchemy.wav" WAVE
  TRACK 02 AUDIO
    TITLE "Alchemy"
    PERFORMER "Above & Beyond"
    FLAGS DCP
    INDEX 01 00:00:00
FILE "03. Above & Beyond - Sun & Moon.wav" WAVE
  TRACK 03 AUDIO
    TITLE "Sun & Moon"
    PERFORMER "Above & Beyond"
    FLAGS DCP
    INDEX 01 00:00:00
FILE "04. Above & Beyond - You Got to Go.wav" WAVE
  TRACK 04 AUDIO
    TITLE "You Got to Go"
    PERFORMER "Above & Beyond"
    FLAGS DCP
    INDEX 01 00:00:00
FILE "05. Above & Beyond - Black Room Boy (feat. Tony McGuinness & Richard Bedford).wav" WAVE
  TRACK 05 AUDIO
    TITLE "Black Room Boy"
    PERFORMER "Above & Beyond feat. Tony McGuinness & Richard Bedford"
    FLAGS DCP
    INDEX 01 00:00:00
FILE "06. Above & Beyond - Giving It Out (feat. Zoe Johnston).wav" WAVE
  TRACK 06 AUDIO
    TITLE "Giving It Out"
    PERFORMER "Above & Beyond feat. Zoe Johnston"
    FLAGS DCP
    INDEX 01 00:00:00
FILE "07. Above & Beyond - On My Way to Heaven (feat. Richard Bedford).wav" WAVE
  TRACK 07 AUDIO
    TITLE "On My Way to Heaven"
    PERFORMER "Above & Beyond feat. Richard Bedford"
    FLAGS DCP
    INDEX 01 00:00:00
FILE "08. Above & Beyond - Prelude.wav" WAVE
  TRACK 08 AUDIO
    TITLE "Prelude"
    PERFORMER "Above & Beyond"
    FLAGS DCP
    INDEX 01 00:00:00
FILE "09. Above & Beyond - Sun in Your Eyes.wav" WAVE
  TRACK 09 AUDIO
    TITLE "Sun in Your Eyes"
    PERFORMER "Above & Beyond"
    FLAGS DCP
    INDEX 01 00:00:00
FILE "10. Above & Beyond - Love Is Not Enough.wav" WAVE
  TRACK 10 AUDIO
    TITLE "Love Is Not Enough"
    PERFORMER "Above & Beyond"
    FLAGS DCP
    INDEX 01 00:00:00
FILE "11. Above & Beyond - Every Little Beat (feat. Richard Bedford).wav" WAVE
  TRACK 11 AUDIO
    TITLE "Every Little Beat"
    PERFORMER "Above & Beyond feat. Richard Bedford"
    FLAGS DCP
    INDEX 01 00:00:00
FILE "12. Above & Beyond - Sweetest Heart (feat. Zoe Johnston).wav" WAVE
  TRACK 12 AUDIO
    TITLE "Sweetest Heart"
    PERFORMER "Above & Beyond feat. Zoe Johnston"
    FLAGS DCP
    INDEX 01 00:00:00
FILE "13. Above & Beyond - Thing Called Love (feat. Richard Bedford).wav" WAVE
  TRACK 13 AUDIO
    TITLE "Thing Called Love"
    PERFORMER "Above & Beyond feat. Richard Bedford"
    FLAGS DCP
    INDEX 01 00:00:00
FILE "14. Above & Beyond - Only a Few Things.wav" WAVE
  TRACK 14 AUDIO
    TITLE "Only a Few Things"
    PERFORMER "Above & Beyond"
    FLAGS DCP
    INDEX 01 00:00:00
FILE "15. Above & Beyond - Eternal.wav" WAVE
  TRACK 15 AUDIO
    TITLE "Eternal"
    PERFORMER "Above & Beyond"
    FLAGS DCP
    INDEX 01 00:00:00

Этот торрент недоступен для скачивания без регистрации, однако доступен по публичной magnet-ссылке (источники с публичных трекеров). Перед использованием ссылки прочтите, пожалуйста Пользовательское соглашение, а также как можно дольше оставайтесь на раздаче! Для того, чтобы скачать сам торрент-файл (который видит больше источников), а также для того, чтобы поблагодарить релизера, вам необходимо зарегистрироваться. Если регистрироваться лень - вы можете также попробовать скачать релиз по нашим партнерским ссылкам ниже. Кроме того, зарегистрированным пользователям не показывается всплывающая реклама при скачивании.

[underverse.me].t102056.torrent
Трекер: Зарегистрирован   [ 11.04.2018 16:23 ]  
Статус: проверено (by Бишеп at 11.04.2018 16:23)
Поблагодарили: пока никто не поблагодарил...
Тип торрента: публичный - доступные источники с открытых трекеров: 
Размер: 483 MB (занимает 0.11 DVDR, для записи нужно 1 болванка DVDR/RW)
 
 

Яндекс.Метрика powered by Sphinx


В Н И М А Н И Е
Сайт не распространяет и не хранит электронные версии произведений, а лишь бесплатно и без коммерческой выгоды (не требуя взамен платы,
SMS и т.д.) предоставляет доступ к создаваемому пользователями каталогу ссылок на торрент-файлы, которые содержат только списки хеш-сумм.
Убедительная просьба с жалобами обращаться напрямую к пользователю, разместившему торрент файл.

Вверх