Loading...
Error

(Trance) Armin van Buuren - Together (In A State Of Trance) (ASOT Festival Anthem) (2015) [FLAC (Tracks+.CUE), Lossless]

Статистика раздачи
Размер:  252 MB   |    Зарегистрирован:  4 года 5 месяцев   |    Скачан:  8 раз

Полного источника не было: 6 месяцев

Сидов:  0  |  0 KB/s  ]   Личеров:  0  |  0 KB/s  ]

* - сиды/пиры с внешних источников

   
 
Автор Сообщение

Бишеп Пол:Муж

03-Май-2018 06:44

Armin van Buuren - Together (In A State Of Trance) (ASOT Festival Anthem)

Жанр: Trance
Год выпуска: 2015
Источник: CD
Производитель диска: Armada - ARMA400
Аудиокодек: FLAC
Тип рипа: Tracks+.CUE
Битрейт аудио: lossless
Продолжительность: 00:24:07


Треклист:
01. Together (In A State Of Trance) (Radio Edit)
02. Together (In A State Of Trance) (Alexander Popov Remix)
03. Together (In A State Of Trance) (David Gravell Remix)
04. Together (In A State Of Trance) (Mark Sherry Remix)
05. Together (In A State Of Trance) (Bryan Kearney Remix)
06. Together (In A State Of Trance) (ReOrder & Standerwick Presents Skypatrol Remix)
07. Together (In A State Of Trance) (Faruk Sabanci Remix)

Код:

Exact Audio Copy V1.0 beta 4 from 7. December 2014

EAC extraction logfile from 17. May 2015, 21:33

Armin van Buuren / Together (In A State Of Trance) (ASOT Festival Anthem)

Used drive  : HL-DT-STDVDRAM GH24NSB0   Adapter: 1  ID: 0

Read mode               : Secure
Utilize accurate stream : Yes
Defeat audio cache      : Yes
Make use of C2 pointers : No

Read offset correction                      : 6
Overread into Lead-In and Lead-Out          : No
Fill up missing offset samples with silence : Yes
Delete leading and trailing silent blocks   : No
Null samples used in CRC calculations       : Yes
Used interface                              : Native Win32 interface for Win NT & 2000
Gap handling                                : Appended to previous track

Used output format              : User Defined Encoder
Selected bitrate                : 1024 kBit/s
Quality                         : High
Add ID3 tag                     : No
Command line compressor         : C:\Program Files\Exact Audio Copy\Flac\flac.exe
Additional command line options : -V -8 -T "Genre=%genre%" -T "Artist=%artist%" -T "Title=%title%" -T "Album=%albumtitle%" -T "Date=%year%" -T "Tracknumber=%tracknr%" -T "Comment=%comment%" %source%

TOC of the extracted CD

     Track |   Start  |  Length  | Start sector | End sector
    ---------------------------------------------------------
        1  |  0:00.00 |  2:41.65 |         0    |    12139   
        2  |  2:41.65 |  3:10.20 |     12140    |    26409   
        3  |  5:52.10 |  2:59.55 |     26410    |    39889   
        4  |  8:51.65 |  4:05.45 |     39890    |    58309   
        5  | 12:57.35 |  3:50.17 |     58310    |    75576   
        6  | 16:47.52 |  3:47.27 |     75577    |    92628   
        7  | 20:35.04 |  3:32.38 |     92629    |   108566   

Track  1

     Filename G:\Music\Flac\Armin van Buuren - Together (In A State Of Trance) (ASOT Festival Anthem) - 2015\01. Armin van Buuren - Together (In A State Of Trance) (Radio Edit).wav

     Pre-gap length  0:00:02.00

     Peak level 99.8 %
     Extraction speed 0.9 X
     Track quality 100.0 %
     Test CRC 91A4ED48
     Copy CRC 91A4ED48
     Track not present in AccurateRip database
     Copy OK

Track  2

     Filename G:\Music\Flac\Armin van Buuren - Together (In A State Of Trance) (ASOT Festival Anthem) - 2015\02. Armin van Buuren - Together (In A State Of Trance) (Alexander Popov Remix).wav

     Pre-gap length  0:00:02.00

     Peak level 99.8 %
     Extraction speed 1.0 X
     Track quality 100.0 %
     Test CRC 5E697B22
     Copy CRC 5E697B22
     Track not present in AccurateRip database
     Copy OK

Track  3

     Filename G:\Music\Flac\Armin van Buuren - Together (In A State Of Trance) (ASOT Festival Anthem) - 2015\03. Armin van Buuren - Together (In A State Of Trance) (David Gravell Remix).wav

     Pre-gap length  0:00:02.00

     Peak level 99.8 %
     Extraction speed 1.1 X
     Track quality 100.0 %
     Test CRC 156EB78F
     Copy CRC 156EB78F
     Track not present in AccurateRip database
     Copy OK

Track  4

     Filename G:\Music\Flac\Armin van Buuren - Together (In A State Of Trance) (ASOT Festival Anthem) - 2015\04. Armin van Buuren - Together (In A State Of Trance) (Mark Sherry Remix).wav

     Pre-gap length  0:00:02.00

     Peak level 99.8 %
     Extraction speed 1.3 X
     Track quality 100.0 %
     Test CRC BF707032
     Copy CRC BF707032
     Track not present in AccurateRip database
     Copy OK

Track  5

     Filename G:\Music\Flac\Armin van Buuren - Together (In A State Of Trance) (ASOT Festival Anthem) - 2015\05. Armin van Buuren - Together (In A State Of Trance) (Bryan Kearney Remix).wav

     Pre-gap length  0:00:02.00

     Peak level 99.8 %
     Extraction speed 1.4 X
     Track quality 100.0 %
     Test CRC 5AFCDF05
     Copy CRC 5AFCDF05
     Track not present in AccurateRip database
     Copy OK

Track  6

     Filename G:\Music\Flac\Armin van Buuren - Together (In A State Of Trance) (ASOT Festival Anthem) - 2015\06. Armin van Buuren - Together (In A State Of Trance) (ReOrder & Standerwick Presents Skypatrol Remix).wav

     Pre-gap length  0:00:02.00

     Peak level 99.8 %
     Extraction speed 1.4 X
     Track quality 100.0 %
     Test CRC 01DDF077
     Copy CRC 01DDF077
     Track not present in AccurateRip database
     Copy OK

Track  7

     Filename G:\Music\Flac\Armin van Buuren - Together (In A State Of Trance) (ASOT Festival Anthem) - 2015\07. Armin van Buuren - Together (In A State Of Trance) (Faruk Sabanci Remix).wav

     Pre-gap length  0:00:02.00

     Peak level 99.8 %
     Extraction speed 1.3 X
     Track quality 99.9 %
     Test CRC A336AB34
     Copy CRC A336AB34
     Track not present in AccurateRip database
     Copy OK

None of the tracks are present in the AccurateRip database

No errors occurred

End of status report

---- CUETools DB Plugin V2.1.4

[CTDB TOCID: UXH2n9K7KXwENaJGIk2W_VV.2p4-] found
Submit result: UXH2n9K7KXwENaJGIk2W_VV.2p4- has been confirmed
Track | CTDB Status
  1   | (1/1) Accurately ripped
  2   | (1/1) Accurately ripped
  3   | (1/1) Accurately ripped
  4   | (1/1) Accurately ripped
  5   | (1/1) Accurately ripped
  6   | (1/1) Accurately ripped
  7   | (1/1) Accurately ripped

==== Log checksum BDE34809D4CA030DF63F623CC9120CFA1F0B08F66DAF468E7419A231C2611B4E ====

Код:

REM GENRE Trance
REM DATE 2015
REM DISCID 5105A707
REM COMMENT "ExactAudioCopy v1.0b4"
PERFORMER "Armin van Buuren"
TITLE "Together (In A State Of Trance) (ASOT Festival Anthem)"
FILE "01. Armin van Buuren - Together (In A State Of Trance) (Radio Edit).wav" WAVE
  TRACK 01 AUDIO
    TITLE "Together (In A State Of Trance) (Radio Edit)"
    PERFORMER "Armin van Buuren"
    ISRC NLF711500143
    INDEX 01 00:00:00
  TRACK 02 AUDIO
    TITLE "Together (In A State Of Trance) (Alexander Popov Remix)"
    PERFORMER "Armin van Buuren"
    ISRC NLF711500137
    INDEX 00 02:39:65
FILE "02. Armin van Buuren - Together (In A State Of Trance) (Alexander Popov Remix).wav" WAVE
    INDEX 01 00:00:00
  TRACK 03 AUDIO
    TITLE "Together (In A State Of Trance) (David Gravell Remix)"
    PERFORMER "Armin van Buuren"
    ISRC NLF711500139
    INDEX 00 03:08:20
FILE "03. Armin van Buuren - Together (In A State Of Trance) (David Gravell Remix).wav" WAVE
    INDEX 01 00:00:00
  TRACK 04 AUDIO
    TITLE "Together (In A State Of Trance) (Mark Sherry Remix)"
    PERFORMER "Armin van Buuren"
    ISRC NLF711500141
    INDEX 00 02:57:55
FILE "04. Armin van Buuren - Together (In A State Of Trance) (Mark Sherry Remix).wav" WAVE
    INDEX 01 00:00:00
  TRACK 05 AUDIO
    TITLE "Together (In A State Of Trance) (Bryan Kearney Remix)"
    PERFORMER "Armin van Buuren"
    ISRC NLF711500138
    INDEX 00 04:03:45
FILE "05. Armin van Buuren - Together (In A State Of Trance) (Bryan Kearney Remix).wav" WAVE
    INDEX 01 00:00:00
  TRACK 06 AUDIO
    TITLE "Together (In A State Of Trance) (ReOrder & Standerwick Presents Skypatrol Remix)"
    PERFORMER "Armin van Buuren"
    ISRC NLF711500142
    INDEX 00 03:48:17
FILE "06. Armin van Buuren - Together (In A State Of Trance) (ReOrder & Standerwick Presents Skypatrol Remix).wav" WAVE
    INDEX 01 00:00:00
  TRACK 07 AUDIO
    TITLE "Together (In A State Of Trance) (Faruk Sabanci Remix)"
    PERFORMER "Armin van Buuren"
    ISRC NLF711500140
    INDEX 00 03:45:27
FILE "07. Armin van Buuren - Together (In A State Of Trance) (Faruk Sabanci Remix).wav" WAVE
    INDEX 01 00:00:00

Этот торрент недоступен для скачивания без регистрации, однако доступен по публичной magnet-ссылке (источники с публичных трекеров). Перед использованием ссылки прочтите, пожалуйста Пользовательское соглашение, а также как можно дольше оставайтесь на раздаче! Для того, чтобы скачать сам торрент-файл (который видит больше источников), а также для того, чтобы поблагодарить релизера, вам необходимо зарегистрироваться. Если регистрироваться лень - вы можете также попробовать скачать релиз по нашим партнерским ссылкам ниже. Кроме того, зарегистрированным пользователям не показывается всплывающая реклама при скачивании.

[underverse.me].t103366.torrent
Трекер: Зарегистрирован   [ 03.05.2018 06:44 ]  
Статус: проверено (by Бишеп at 03.05.2018 06:46)
Поблагодарили: пока никто не поблагодарил...
Тип торрента: публичный - доступные источники с открытых трекеров: 
Размер: 252 MB (занимает 0.06 DVDR, для записи нужно 1 болванка DVDR/RW)
 
 

Яндекс.Метрика powered by Sphinx


В Н И М А Н И Е
Сайт не распространяет и не хранит электронные версии произведений, а лишь бесплатно и без коммерческой выгоды (не требуя взамен платы,
SMS и т.д.) предоставляет доступ к создаваемому пользователями каталогу ссылок на торрент-файлы, которые содержат только списки хеш-сумм.
Убедительная просьба с жалобами обращаться напрямую к пользователю, разместившему торрент файл.

Вверх