Loading...
Error

Сокровище Купера / Cooper's Treasure (2 сезон: 8 серий из 8 ) [2018 г., документальный, приключения, история, HDTVRip] DVO

Статистика раздачи
Размер:  5.15 GB   |    Зарегистрирован:  3 года 11 месяцев   |    Скачан:  3 раза

Полного источника не было: 1 год 9 месяцев

Сидов:  0  |  0 KB/s  ]   Личеров:  0  |  0 KB/s  ]

* - сиды/пиры с внешних источников

   
 
Автор Сообщение

ARI71 Пол:Муж

27-Авг-2018 14:05

Сокровище Купера / Cooper's Treasure (2 сезон: 8 серий из 8 )


Год выпуска: 2018
Жанр: документальный, приключения, история
Страна: США Discovery Communications, LLC.
Сюжет фильма:
Даррелл Миклош продолжает охоту за сокровищами на Discovery Channel! После неудачи на островах Тёркс и Кайкос искатель приключений взял себя в руки, собрал достаточно денег и отправился в новый поход. Вооружившись картой астронавта Гордона Купера, тысячами его фотографий, сделанных во время космической миссии «Джемини-V», и загадочным списком одиннадцати местоположений затонувших кораблей, Даррелл направляется к месту кораблекрушений колониальной эпохи – на Багамы. У Миклоша мало денег и ещё меньше времени – всего восемь недель, чтобы найти клад. Но тем интереснее приключение!

Качество видео: HDTVRip

Продолжительность: 8 x ~ 00:44:00
Формат: AVI
Видео: XviD, 720x400, 1898 kbps
Аудио: русский, двухголосый закадровый [профессиональный], AC3 2.0, 192 kbps

Код:

Общее
Полное имя : D:\Сокровище Купера s02 GeneralFilm\01 Сокровище Купера s02 GeneralFilm.avi
Формат : AVI
Формат/Информация : Audio Video Interleave
Размер файла : 657 Мбайт
Продолжительность : 43 м. 43 с.
Общий поток : 2100 Кбит/сек
Программа кодирования : VirtualDubMod 1.5.10.3 | www.virtualdub-fr.org || (build 2550/release)
Библиотека кодирования : VirtualDubMod build 2550/release

Видео
Идентификатор : 0
Формат : MPEG-4 Visual
Профиль формата : Advanced [email protected]
Настройки формата : BVOP1 / Custom Matrix
Параметр BVOP формата : 1
Параметр QPel формата : Нет
Параметр GMC формата : Без точки перехода
Параметр матрицы формата : Выборочная
Идентификатор кодека : XVID
Идентификатор кодека/Подсказка : XviD
Продолжительность : 43 м. 43 с.
Битрейт : 1898 Кбит/сек
Ширина : 720 пикселей
Высота : 400 пикселей
Соотношение сторон : 16:9
Частота кадров : 25,000 кадров/сек
Цветовое пространство : YUV
Субдискретизация насыщенности : 4:2:0
Битовая глубина : 8 бит
Тип развёртки : Прогрессивная
Метод сжатия : С потерями
Бит/(Пиксели*Кадры) : 0.264
Размер потока : 594 Мбайт (90%)
Библиотека кодирования : XviD 73

Аудио
Идентификатор : 1
Формат : AC-3
Формат/Информация : Audio Coding 3
Идентификатор кодека : 2000
Продолжительность : 43 м. 43 с.
Вид битрейта : Постоянный
Битрейт : 192 Кбит/сек
Каналы : 2 канала
Расположение каналов : Front: L R
Частота : 48,0 КГц
Частота кадров : 31,250 кадров/сек (1536 SPF)
Битовая глубина : 16 бит
Метод сжатия : С потерями
Размер потока : 60,0 Мбайт (9%)
Выравнивание : Разделение по промежуткам
Продолжительность промежутка : 40 мс. (1,00 видеокадр)
Время предзагрузки промежутка : 500 мс.
ServiceKind/String : Complete Main
picpicpicpicpic
Для увеличения картинки щелкните мышкой по превью

Этот торрент недоступен для скачивания без регистрации, однако доступен по публичной magnet-ссылке (источники с публичных трекеров). Перед использованием ссылки прочтите, пожалуйста Пользовательское соглашение, а также как можно дольше оставайтесь на раздаче! Для того, чтобы скачать сам торрент-файл (который видит больше источников), а также для того, чтобы поблагодарить релизера, вам необходимо зарегистрироваться. Если регистрироваться лень - вы можете также попробовать скачать релиз по нашим партнерским ссылкам ниже. Кроме того, зарегистрированным пользователям не показывается всплывающая реклама при скачивании.

[underverse.name].t115034.torrent
Трекер: Зарегистрирован   [ 30.09.2018 20:28 ]  
Статус: проверено (by ARI71 at 30.09.2018 20:29)
Поблагодарили: 1 человек
Тип торрента: публичный - доступные источники с открытых трекеров: 
Размер: 5.15 GB (занимает 1.18 DVDR, для записи нужно 2 болванки DVDR/RW)
 
 


Последний раз редактировалось: ARI71 (30.09.2018 20:28), всего редактировалось 5 раз(а)

ARI71 Пол:Муж

02-Сен-2018 17:25

Добавлена заключительная 8-я серия

Яндекс.Метрика powered by Sphinx


В Н И М А Н И Е
Сайт не распространяет и не хранит электронные версии произведений, а лишь бесплатно и без коммерческой выгоды (не требуя взамен платы,
SMS и т.д.) предоставляет доступ к создаваемому пользователями каталогу ссылок на торрент-файлы, которые содержат только списки хеш-сумм.
Убедительная просьба с жалобами обращаться напрямую к пользователю, разместившему торрент файл.

Вверх