Loading...
Error

Фантастические фестивали мира / Fantastic Festivals Of The World (1 сезон: 11 серий, 2 сезон: 14 серий) / (Марк Пингри) [2007 г., документальный, HDTVRip] VO

Статистика раздачи
Размер:  18.92 GB   |    Зарегистрирован:  3 года 8 месяцев   |    Скачан:  6 раз

Полного источника не было: 3 года 2 месяца

Сидов:  0  |  0 KB/s  ]   Личеров:  0  |  0 KB/s  ]

* - сиды/пиры с внешних источников

   
 
Автор Сообщение

seasea Пол:Муж

13-Янв-2019 12:32

Фантастические фестивали мира / Fantastic Festivals Of The World (1 сезон: 11 серий, 2 сезон: 14 серий)


Год выпуска: 2007
Жанр: документальный
Страна: Великобритания
Режиссер: Марк Пингри
Сюжет фильма:
Эти фестивали отличаются самыми лучшими,самыми экзотическими и уникальными торжествами со всего мира.Каждый год эти праздники отмечаются с большим энтузиазмом и страстью и имеют особую отметку в календаре.
Качество видео: HDTVRip

Продолжительность: 11 х ~ 00:44:00 14 х ~ 00:45:00
Формат: AVI
Видео: XviD, 720x480, 2313 kbps
Аудио: русский, одноголосый закадровый [профессиональный], MP3 2.0, 128 kbps
1 сезон.
1.Гонг-Конг.Фестиваль середины осени
2.Новая Зеландия˜ .Международный фестиваль уличных актёров
3.Канада. Карнавал в Квебеке
4.США.Карнавал на Виргинских островах
5.Франция.Седан.Майские фестивали
6.Индия.Пури.Фестиваль Рат-Ятра
7.США.Вайоминг.Встреча на Грин-Ривер
8.Боливия.Фестиваль Девы Уркупиньи
9.Япония.Окинава.Праздник поминовения усопших
10.Турция˜.Конья.Праздник кружащихся дервишей
11.Таиланд.Фестиваль Сонгкран


2 сезон
1.Мексика.День Мёртвых.Мочуакан
2.Аргентина.Традиционная фиеста
3.Германия.Февральский карнавал
4.Италия.Пасха на Сицилии
5.Филиппины.Праздники урожая
6.Австралия.Фестивали Дарвин и Гарма
7.Шотландия.Горные игры
8.Бразилия.Фестиваль Бои Бумба
9.Южная Корея.Фестиваль танца масок
10.Тайвань.Фестиваль фонариков на Тайване
11.Чешская республика.Фольклорные фестивали Чешской Республики
12.Япония.Священные летние фестивали
13.Испания.Фестиваль гигантских карикатурных скульптур
14.Папуа-Новая Гвинея.Сентябрьские праздники искусств
[/code]

Код:

General
Complete name                            : 01.Dia de los Muertos.  Mexico.avi
Format                                   : AVI
Format/Info                              : Audio Video Interleave
File size                                : 768 MiB
Duration                                 : 43 min 47 s
Overall bit rate                         : 2 451 kb/s
Writing application                      : Lavf52.54.0

Video
ID                                       : 0
Format                                   : MPEG-4 Visual
Format profile                           : [email protected]
Format settings, BVOP                    : No
Format settings, QPel                    : No
Format settings, GMC                     : No warppoints
Format settings, Matrix                  : Default (H.263)
Codec ID                                 : XVID
Codec ID/Hint                            : XviD
Duration                                 : 43 min 47 s
Bit rate                                 : 2 313 kb/s
Width                                    : 720 pixels
Height                                   : 480 pixels
Display aspect ratio                     : 16:9
Frame rate                               : 25.000 FPS
Color space                              : YUV
Chroma subsampling                       : 4:2:0
Bit depth                                : 8 bits
Scan type                                : Progressive
Compression mode                         : Lossy
Bits/(Pixel*Frame)                       : 0.268
Stream size                              : 724 MiB (94%)
Writing library                          : XviD 1.1.2 (UTC 2006-11-01)

Audio
ID                                       : 1
Format                                   : MPEG Audio
Format version                           : Version 1
Format profile                           : Layer 3
Format settings                          : Joint stereo / MS Stereo
Codec ID                                 : 55
Codec ID/Hint                            : MP3
Duration                                 : 43 min 5 s
Bit rate mode                            : Constant
Bit rate                                 : 128 kb/s
Channel(s)                               : 2 channels
Sampling rate                            : 44.1 kHz
Compression mode                         : Lossy
Stream size                              : 39.5 MiB (5%)
Alignment                                : Aligned on interleaves
Interleave, duration                     : 27  ms (0.66 video frame)
Rip от SEASEA

picpicpicpicpic
Для увеличения картинки щелкните мышкой по превью

Этот торрент доступен для скачивания без регистрации. Перед тем, как его скачать, прочтите, пожалуйста Пользовательское соглашение, а также как можно дольше оставайтесь на раздаче! Также вы можете выкладывать этот торрент или ссылку на него на других интернет-ресурсах, в том числе на торрент трекерах. Для получение более подробной информации о релизе, а также для того, чтобы поблагодарить релизера, вам необходимо зарегистрироваться.

[underverse.name].t124212.torrent
Трекер: Зарегистрирован   [ 13.01.2019 12:32 ]   [ торрент доступен для скачивания без регистрации ]

Статус: проверено (by ARI71 at 13.01.2019 14:46)
Поблагодарили: 3 человека
Тип торрента: публичный - доступные источники с открытых трекеров: 
Размер: 18.92 GB (занимает 4.32 DVDR, для записи нужно 5 болванок DVDR/RW)
 
 


Последний раз редактировалось: seasea (13.01.2019 14:53), всего редактировалось 6 раз(а)

garry Пол:Муж

13-Янв-2019 12:59

seasea
Добрый день.

для начала - это Ваши рипы?
и каким боком там наша гифка "Underverse"? 8) Вы договаривались с кем-то из администрации?

ARI71 Пол:Муж

13-Янв-2019 13:09

Да, это его рипы garry Администрация в курсе!!!

seasea Пол:Муж

13-Янв-2019 13:09

Конечно, это моя собственность. Гифка ошибка щас удалю

ARI71 Пол:Муж

13-Янв-2019 13:12

seasea писал(а):

Конечно, это моя собственность. Гифка ошибка щас удалю
Если твой релиз дружище, а я знаю, что твой, то гифку можешь оставить!

Спасибо за первую раздачу. Почин есть :good:


Последний раз редактировалось: ARI71 (13.01.2019 13:17), всего редактировалось 1 раз

garry Пол:Муж

13-Янв-2019 13:15

Цитата:

Администрация в курсе!!!
это интересно...

Цитата:

Гифка ошибка щас удалю
ну если администрация в курсе, то пусть уже будет...
но все же у меня будет пара вопросов. главное не воспринимайте ничего лично. просто хочется все привести в порядок.

Evgenii82 Пол:Муж

13-Янв-2019 13:17

garry
Все в курсе, все в порядке
seasea
Рады приветствовать у нас на трекере, удачи!

Паукан Пол:Муж

13-Янв-2019 14:45

seasea
в спойлере заголовок надо брать в кавычки, тогда будет нормально, я поправил

seasea Пол:Муж

13-Янв-2019 16:23

Всем спасибо за правку, за внимание, терпение! С Новым Годом!

Яндекс.Метрика powered by Sphinx


В Н И М А Н И Е
Сайт не распространяет и не хранит электронные версии произведений, а лишь бесплатно и без коммерческой выгоды (не требуя взамен платы,
SMS и т.д.) предоставляет доступ к создаваемому пользователями каталогу ссылок на торрент-файлы, которые содержат только списки хеш-сумм.
Убедительная просьба с жалобами обращаться напрямую к пользователю, разместившему торрент файл.

Вверх