Loading...
Error

Тонущие города (5 серий из 5) / Sinking Cities [2018 г., документальный, катастрофы, наводнение, HDRip] DVO

Статистика раздачи
Размер:  3.95 GB   |    Зарегистрирован:  3 года 8 месяцев   |    Скачан:  2 раза

Полного источника не было: 2 года 8 месяцев

Сидов:  0  |  0 KB/s  ]   Личеров:  0  |  0 KB/s  ]

* - сиды/пиры с внешних источников

   
 
Автор Сообщение

seasea Пол:Муж

28-Янв-2019 16:53

Тонущие города (5 серий из 5) / Sinking Cities


Год выпуска: 2018
Жанр: документальный, катастрофы, наводнение
Страна: Канада
Режиссер: Discovery Channel
Сюжет фильма:
Стихийные бедствия, вроде ураганов, потопов или наводнений могут уничтожать целые города. Именно поэтому ведущие специалисты занимаются разработкой проектов по защите крупных городов от разрушительных природных катаклизмов. Каждая серия посвящена одному городу, его пути и противостоянии стихии.
Качество видео: HDRip

Продолжительность: 5 x ~00:44:00
Формат: AVI
Видео: MPEG-4, [email protected], 2 394 kb/s
Аудио: русский, двухголосый закадровый [профессиональный], MP3 2.0, 128 kb/s

Релиз: для underver.se
1.Тонущие города. Нью Йорк
2.Тонущие города. Япония
3.Тонущие города. Лондон
4.Тонущие города. Майями
5.Тонущие города. Венеция

Код:

General
Complete name                            : 02 Тонущие города Япония .avi
Format                                   : AVI
Format/Info                              : Audio Video Interleave
File size                                : 796 MiB
Duration                                 : 43 min 55 s
Overall bit rate                         : 2 535 kb/s
Writing application                      : Lavf57.41.100

Video
ID                                       : 0
Format                                   : MPEG-4 Visual
Format profile                           : [email protected]
Format settings, BVOP                    : No
Format settings, QPel                    : No
Format settings, GMC                     : No warppoints
Format settings, Matrix                  : Default (H.263)
Codec ID                                 : FMP4
Duration                                 : 43 min 55 s
Bit rate                                 : 2 394 kb/s
Width                                    : 720 pixels
Height                                   : 480 pixels
Display aspect ratio                     : 16:9
Frame rate                               : 29.970 (30000/1001) FPS
Standard                                 : NTSC
Color space                              : YUV
Chroma subsampling                       : 4:2:0
Bit depth                                : 8 bits
Scan type                                : Progressive
Compression mode                         : Lossy
Bits/(Pixel*Frame)                       : 0.231
Stream size                              : 752 MiB (94%)
Writing library                          : Lavc57.48.101

Audio
ID                                       : 1
Format                                   : MPEG Audio
Format version                           : Version 1
Format profile                           : Layer 3
Format settings                          : Joint stereo / MS Stereo
Codec ID                                 : 55
Codec ID/Hint                            : MP3
Duration                                 : 43 min 55 s
Bit rate mode                            : Constant
Bit rate                                 : 128 kb/s
Channel(s)                               : 2 channels
Sampling rate                            : 44.1 kHz
Compression mode                         : Lossy
Stream size                              : 40.2 MiB (5%)
Alignment                                : Aligned on interleaves
Interleave, duration                     : 26  ms (0.78 video frame)
picpicpicpicpic
Для увеличения картинки щелкните мышкой по превью

Этот торрент недоступен для скачивания без регистрации, однако доступен по публичной magnet-ссылке (источники с публичных трекеров). Перед использованием ссылки прочтите, пожалуйста Пользовательское соглашение, а также как можно дольше оставайтесь на раздаче! Для того, чтобы скачать сам торрент-файл (который видит больше источников), а также для того, чтобы поблагодарить релизера, вам необходимо зарегистрироваться. Если регистрироваться лень - вы можете также попробовать скачать релиз по нашим партнерским ссылкам ниже. Кроме того, зарегистрированным пользователям не показывается всплывающая реклама при скачивании.

[underverse.name].t125388.torrent
Трекер: Зарегистрирован   [ 28.01.2019 16:53 ]  
Статус: проверено (by ARI71 at 28.01.2019 17:20)
Поблагодарили: 3 человека
Тип торрента: публичный - доступные источники с открытых трекеров: 
Размер: 3.95 GB (занимает 0.9 DVDR, для записи нужно 1 болванка DVDR/RW)
 
 

ARI71 Пол:Муж

28-Янв-2019 17:26

Спасибо, за очередной документальный сериал, и авторский рип! :good:

Яндекс.Метрика powered by Sphinx


В Н И М А Н И Е
Сайт не распространяет и не хранит электронные версии произведений, а лишь бесплатно и без коммерческой выгоды (не требуя взамен платы,
SMS и т.д.) предоставляет доступ к создаваемому пользователями каталогу ссылок на торрент-файлы, которые содержат только списки хеш-сумм.
Убедительная просьба с жалобами обращаться напрямую к пользователю, разместившему торрент файл.

Вверх