Loading...
Error

Ароматы мира (17 серий из 17) / Flavors of (Эрик Бэкос) [2007 г., документальный, путешествия, природа, HDTVRip] VO

Статистика раздачи
Размер:  18.11 GB   |    Зарегистрирован:  3 года 8 месяцев   |    Скачан:  2 раза

Полного источника не было: 2 года 8 месяцев

Сидов:  0  |  0 KB/s  ]   Личеров:  0  |  0 KB/s  ]

* - сиды/пиры с внешних источников

   
 
Автор Сообщение

seasea Пол:Муж

03-Фев-2019 18:10

Ароматы мира (17 серий из 17) / Flavors of


Год выпуска: 2007
Жанр: документальный, путешествия, природа
Страна: США Discovery Channel
Режиссер: Эрик Бэкос
Сюжет фильма:
Обзорные фильмы о странах мира. Обо всем понемногу. Культура, народы, религии, география, искусства, история. Красиво и в целом познавательно. Откройте себе мир почувствуйте его ароматы многообразия.
Качество видео: HDTVRip

Продолжительность: 17 х ~ 00:52:00
Формат: AVI
Видео: XviD, [email protected]х480, 2 346 kbps
Аудио: русский, одноголосый закадровый [профессиональный], MP3 2.0, 128 kb/s
Релиз: для underver.se
01. Ароматы Армении. Земля Ноя
02. Ароматы Балеарских островов
03. Ароматы Вьетнама
04. Ароматы Грузии
05. Ароматы Западной Японии
06. Ароматы Казахстана
07. Ароматы Канарских островов
08. Ароматы Киклад
09. Ароматы Маврикия и Родригеса
10. Ароматы Никарагуа
11. Ароматы Перу
12. Ароматы Полинезии
13. Ароматы Прованса
14. Ароматы Сицилии
15. Ароматы Таиланда
16. Ароматы Турции
17. Ароматы Южной Индии

Код:

General
Complete name                            : Ароматы Перу.avi
Format                                   : AVI
Format/Info                              : Audio Video Interleave
File size                                : 918 MiB
Duration                                 : 51 min 36 s
Overall bit rate                         : 2 486 kb/s
Writing application                      : MEncoder SVN-r29352(20090610-gcc4.3.3)
Writing library                          : MPlayer

Video
ID                                       : 0
Format                                   : MPEG-4 Visual
Format profile                           : Advanced [email protected]
Format settings                          : BVOP2
Format settings, BVOP                    : 2
Format settings, QPel                    : No
Format settings, GMC                     : No warppoints
Format settings, Matrix                  : Default (H.263)
Codec ID                                 : XVID
Codec ID/Hint                            : XviD
Duration                                 : 51 min 36 s
Bit rate                                 : 2 346 kb/s
Width                                    : 720 pixels
Height                                   : 480 pixels
Display aspect ratio                     : 16:9
Frame rate                               : 25.000 FPS
Color space                              : YUV
Chroma subsampling                       : 4:2:0
Bit depth                                : 8 bits
Scan type                                : Progressive
Compression mode                         : Lossy
Bits/(Pixel*Frame)                       : 0.272
Stream size                              : 866 MiB (94%)
Writing library                          : XviD 1.2.1 (UTC 2008-12-04)

Audio
ID                                       : 1
Format                                   : MPEG Audio
Format version                           : Version 1
Format profile                           : Layer 3
Format settings                          : Joint stereo / MS Stereo
Codec ID                                 : 55
Codec ID/Hint                            : MP3
Duration                                 : 51 min 36 s
Bit rate mode                            : Constant
Bit rate                                 : 128 kb/s
Channel(s)                               : 2 channels
Sampling rate                            : 44.1 kHz
Compression mode                         : Lossy
Delay relative to video                  : 40 ms
Stream size                              : 47.3 MiB (5%)
Alignment                                : Aligned on interleaves
Interleave, duration                     : 26  ms (0.65 video frame)
Interleave, preload duration             : 522  ms
picpicpicpicpic
Для увеличения картинки щелкните мышкой по превью

Этот торрент недоступен для скачивания без регистрации, однако доступен по публичной magnet-ссылке (источники с публичных трекеров). Перед использованием ссылки прочтите, пожалуйста Пользовательское соглашение, а также как можно дольше оставайтесь на раздаче! Для того, чтобы скачать сам торрент-файл (который видит больше источников), а также для того, чтобы поблагодарить релизера, вам необходимо зарегистрироваться. Если регистрироваться лень - вы можете также попробовать скачать релиз по нашим партнерским ссылкам ниже. Кроме того, зарегистрированным пользователям не показывается всплывающая реклама при скачивании.

[underverse.name].t125941.torrent
Трекер: Зарегистрирован   [ 03.02.2019 18:10 ]  
Статус: проверено (by ARI71 at 03.02.2019 18:54)
Поблагодарили: 2 человека
Тип торрента: публичный - доступные источники с открытых трекеров: 
Размер: 18.11 GB (занимает 4.14 DVDR, для записи нужно 5 болванок DVDR/RW)
 
 

ARI71 Пол:Муж

06-Фев-2019 10:44

Отличный, познавательный документальный сериал! Спасибо большое! :good:

Яндекс.Метрика powered by Sphinx


В Н И М А Н И Е
Сайт не распространяет и не хранит электронные версии произведений, а лишь бесплатно и без коммерческой выгоды (не требуя взамен платы,
SMS и т.д.) предоставляет доступ к создаваемому пользователями каталогу ссылок на торрент-файлы, которые содержат только списки хеш-сумм.
Убедительная просьба с жалобами обращаться напрямую к пользователю, разместившему торрент файл.

Вверх