Loading...
Error

Американские боги / American Gods (Сезон 2 , Серия 1-8 из 8) ( Дэвид Слэйд, Адам Кэйн, Винченцо Натали) [2019, Фэнтези, детектив,WEB-DLRip 720p] [LostFilm+ Нота+Jaskier+AlexFilm+NewStudio+Eng]+[Subs Rus , ENG]

Статистика раздачи
Размер:  20,59 GB   |    Зарегистрирован:  1 год 4 месяца   |    Скачан:  0 раз

Полного источника не было: 7 месяцев

Сидов:  0  |  0 KB/s  ]   Личеров:  0  |  0 KB/s  ]

* - сиды/пиры с внешних источников

   
 
Автор Сообщение

Nikolai.Baranov Пол:Муж

14-Мар-2019 11:16





Американские боги / American Gods Сезон 2 , Серия 1-8 из 8 Полный Комплект



Год выпуска: 2019
Выпущено: США , Fremantle Media North America
Жанр: Фэнтези, детектив
Продолжительность: 00:55:00
Сезон:2
Серия:1-8
Количество серий в сезоне:8

Озвучка #1: Дублированный - Нота - Русский

Озвучка #2: Профессиональный многоголосый - LostFilm - Русский

Озвучка #3: Профессиональный многоголосый - Jaskier - Русский

Озвучка #4: Профессиональный многоголосый - AlexFilm - Русский

Озвучка #5: Профессиональный многоголосый - NewStudio - Русский

Озвучка #6: Профессиональный многоголосый -Английский - Оригинал

Субтитры: Russian , English, English SDH


Релиз Без Рекламы - ВНИМАНИЕ! В сериале пНенормативная лексика

Официальный сайт

MDB

Режиссеры:
Дэвид Слэйд, Адам Кэйн, Винченцо Натали

В ролях: Рики Уиттл, Иэн МакШейн, Эмили Браунинг, Пабло Шрайбер, Брюс Лэнгли, Джонатан Такер, Джиллиан Андерсон, Клорис Личмен, Демор Барнс, Криспин Гловер, Йетиде Бадаки, Орландо Джонс, Петер Стормаре, Джереми Дэвис, Омид Абтахи, Кристофер Оби

Тень — человек с прошлым. Но теперь единственное, чего он хочет — это жить тихой и спокойной жизнью со своей женой в стороне от проблем. Пока он не узнает о ее гибели в результате несчастного случая. По пути на похороны домой, когда сильнейший шторм сотрясает самолет, ему представляется странный человек с соседнего кресла. Он называет себя мистер Среда. И он знает о Тени больше, чем кажется возможным. Он предупреждает Тень, что грядет ещё больший шторм. И ничто с этого момента, включая его самого, не будет таким, как прежде.



Качество :WEB-DLRip 720p
Формат: MKV
Видео кодек: H264
Видео: 4597Кбит/сек,1280х720(16.9),в 23.976кадр/сек,AVC ([email protected])(CABAC/4 Ref Frames)
Аудио Кодек:AC3

Аудио #1:AC3 640 Kbps, 48.0 KHz, 6 ch- Lostfilm -Русский

Аудио #2:AC3 640 Kbps, 48.0 KHz, 6 ch- Нота -Русский

Аудио #3:AC3 384 Kbps, 48.0 KHz, 6 ch- Jaskier -Русский

Аудио #4:AC3 384 Kbps, 48.0 KHz, 6 ch- AlexFilm -Русский

Аудио #5:AC3 384 Kbps, 48.0 KHz, 6 ch- NewStudio -Русский

Аудио #6: AC3, 640 Kbps, 48.0 KHz,6 ch - - English - Оригинал

Звуковая дорожка сделана путем наложения чистого голоса озвучивателей на центральный канал оригинальной дорожки. Качество идентично звуковой дорожке.


2 сезон 1 серия - Дом на скале - House on the Rock
2 сезон 2 серия - Обманщик - The Beguiling Man
2 сезон 3 серия - Мунин - Muninn
2 сезон 4 серия - Громче истории на свете нет - The Greatest Story Ever Told
2 сезон 5 серия - Мертвые порядки - The Ways of the Dead
2 сезон 6 серия - Великий Доннар - Donar the Great
2 сезон 7 серия - Сокровище солнца - Treasure of the Sun
2 сезон 8 серия - Лунная тень - Moon Shadow




Общее
Уникальный идентификатор : 134015878302676455158621631688669391714 (0x64D284F1263FEBC5FAC314FE825BEB62)
Полное имя : C:\Users\Russian Patriot\Downloads\АМЕРИКАНСКИЕ БОГИ - American Gods\American_Gods_2019_S02_Н264_DD5.1_N.B_HD_720_4xRus_Eng\American_Gods_S02E01_Н264_DD5.1_N.B_HD_720_4xRus_Eng.mkv
Формат : Matroska
Версия формата : Version 4
Размер файла : 2,89 Гбайт
Продолжительность : 53 м. 53 с.
Общий поток : 7674 Кбит/сек
Название фильма : American Gods 2019 S02E01 @ Nikolai.Baranov & PIRATIYA
Дата кодирования : UTC 2019-03-28 19:07:53
Программа кодирования : mkvmerge v32.0.0 ('Astral Progressions') 64-bit
Библиотека кодирования : libebml v1.3.7 + libmatroska v1.5.0
Обложка : Yes
Attachments : cover.american.gods.jpg

Видео
Идентификатор : 1
Формат : AVC
Формат/Информация : Advanced Video Codec
Профиль формата : [email protected]
Настройки формата : CABAC / 4 Ref Frames
Параметр CABAC формата : Да
Параметр RefFrames формата : 4 кадра
Идентификатор кодека : V_MPEG4/ISO/AVC
Продолжительность : 53 м. 53 с.
Вид битрейта : Постоянный
Битрейт : 4597 Кбит/сек
Номинальный битрейт : 6000 Кбит/сек
Ширина : 1280 пикселей
Высота : 720 пикселей
Соотношение сторон : 16:9
Режим частоты кадров : Постоянный
Частота кадров : 23,976 (24000/1001) кадра/сек
Цветовое пространство : YUV
Субдискретизация насыщенности : 4:2:0
Битовая глубина : 8 бит
Тип развёртки : Прогрессивная
Бит/(Пиксели*Кадры) : 0.208
Размер потока : 1,73 Гбайт (60%)
Заголовок : American_Gods_S02E01_Н264_DD5.1_N.B_HD_720_4xRus_Eng
Язык : Russian
Default : Да
Forced : Нет
Цветовой диапазон : Limited
Основные цвета : BT.709
Характеристики трансфера : BT.709
Коэффициенты матрицы : BT.709

Аудио #1
Идентификатор : 6
Формат : AC-3
Формат/Информация : Audio Coding 3
Коммерческое название : Dolby Digital
Идентификатор кодека : A_AC3
Продолжительность : 53 м. 53 с.
Вид битрейта : Постоянный
Битрейт : 640 Кбит/сек
Каналы : 6 каналов
Channel layout : L R C LFE Ls Rs
Частота : 48,0 КГц
Частота кадров : 31,250 кадров/сек (1536 SPF)
Битовая глубина : 16 бит
Метод сжатия : С потерями
Размер потока : 247 Мбайт (8%)
Заголовок : DUB Нота @DD5.1 AC3, 640 Kbps, 48.0 KHz, 6 ch
Язык : Russian
ServiceKind/String : Complete Main
Default : Да
Forced : Нет

Аудио #2
Идентификатор : 7
Формат : AC-3
Формат/Информация : Audio Coding 3
Коммерческое название : Dolby Digital
Идентификатор кодека : A_AC3
Продолжительность : 53 м. 53 с.
Вид битрейта : Постоянный
Битрейт : 640 Кбит/сек
Каналы : 6 каналов
Channel layout : L R C LFE Ls Rs
Частота : 48,0 КГц
Частота кадров : 31,250 кадров/сек (1536 SPF)
Битовая глубина : 16 бит
Метод сжатия : С потерями
Размер потока : 247 Мбайт (8%)
Заголовок : MVO LostFilm @DD5.1 AC3, 640 Kbps, 48.0 KHz, 6 ch
Язык : Russian
ServiceKind/String : Complete Main
Default : Нет
Forced : Нет

Аудио #3
Идентификатор : 8
Формат : AC-3
Формат/Информация : Audio Coding 3
Коммерческое название : Dolby Digital
Идентификатор кодека : A_AC3
Продолжительность : 53 м. 53 с.
Вид битрейта : Постоянный
Битрейт : 384 Кбит/сек
Каналы : 6 каналов
Channel layout : L R C LFE Ls Rs
Частота : 48,0 КГц
Частота кадров : 31,250 кадров/сек (1536 SPF)
Битовая глубина : 16 бит
Метод сжатия : С потерями
Размер потока : 148 Мбайт (5%)
Заголовок : MVO Jaskier @DD5.1 AC3, 384 Kbps, 48.0 KHz, 6 ch
Язык : Russian
ServiceKind/String : Complete Main
Default : Нет
Forced : Нет

Аудио #4
Идентификатор : 9
Формат : AC-3
Формат/Информация : Audio Coding 3
Коммерческое название : Dolby Digital
Идентификатор кодека : A_AC3
Продолжительность : 53 м. 53 с.
Вид битрейта : Постоянный
Битрейт : 384 Кбит/сек
Каналы : 6 каналов
Channel layout : L R C LFE Ls Rs
Частота : 48,0 КГц
Частота кадров : 31,250 кадров/сек (1536 SPF)
Битовая глубина : 16 бит
Метод сжатия : С потерями
Размер потока : 148 Мбайт (5%)
Заголовок : MVO AlexFilm @DD5.1 AC3, 384 Kbps, 48.0 KHz, 6 ch
Язык : Russian
ServiceKind/String : Complete Main
Default : Нет
Forced : Нет

Аудио #5
Идентификатор : 10
Формат : AC-3
Формат/Информация : Audio Coding 3
Коммерческое название : Dolby Digital
Идентификатор кодека : A_AC3
Продолжительность : 53 м. 53 с.
Вид битрейта : Постоянный
Битрейт : 640 Кбит/сек
Каналы : 6 каналов
Channel layout : L R C LFE Ls Rs
Частота : 48,0 КГц
Частота кадров : 31,250 кадров/сек (1536 SPF)
Битовая глубина : 16 бит
Метод сжатия : С потерями
Размер потока : 247 Мбайт (8%)
Заголовок : [email protected] AC3 ,640 Kbps, 48.0 KHz, 6 ch
Язык : English
ServiceKind/String : Complete Main
Default : Нет
Forced : Нет

Аудио #6
Идентификатор : 11
Формат : AC-3
Формат/Информация : Audio Coding 3
Коммерческое название : Dolby Digital
Идентификатор кодека : A_AC3
Продолжительность : 53 м. 53 с.
Вид битрейта : Постоянный
Битрейт : 384 Кбит/сек
Каналы : 6 каналов
Channel layout : L R C LFE Ls Rs
Частота : 48,0 КГц
Частота кадров : 31,250 кадров/сек (1536 SPF)
Битовая глубина : 16 бит
Метод сжатия : С потерями
Размер потока : 148 Мбайт (5%)
Заголовок : MVO NewStudio @DD5.1 AC3, 384 Kbps, 48.0 KHz, 6 ch
Язык : Russian
ServiceKind/String : Complete Main
Default : Нет
Forced : Нет

Текст #1
Идентификатор : 2
Формат : UTF-8
Идентификатор кодека : S_TEXT/UTF8
Идентификатор кодека/Информация : UTF-8 Plain Text
Продолжительность : 48 м. 18 с.
Битрейт : 2 бит/сек
ElementCount : 28
Размер потока : 1012 байт (0%)
Заголовок : Rus - Forced
Язык : Russian
Default : Да
Forced : Нет

Текст #2
Идентификатор : 3
Формат : UTF-8
Идентификатор кодека : S_TEXT/UTF8
Идентификатор кодека/Информация : UTF-8 Plain Text
Продолжительность : 53 м. 44 с.
Битрейт : 72 бит/сек
ElementCount : 546
Размер потока : 28,6 Кбайт (0%)
Заголовок : Rus
Язык : Russian
Default : Нет
Forced : Нет

Текст #3
Идентификатор : 4
Формат : UTF-8
Идентификатор кодека : S_TEXT/UTF8
Идентификатор кодека/Информация : UTF-8 Plain Text
Продолжительность : 53 м. 34 с.
Битрейт : 54 бит/сек
ElementCount : 713
Размер потока : 21,3 Кбайт (0%)
Заголовок : Original - SDH
Язык : English
Default : Нет
Forced : Нет

Текст #4
Идентификатор : 5
Формат : UTF-8
Идентификатор кодека : S_TEXT/UTF8
Идентификатор кодека/Информация : UTF-8 Plain Text
Продолжительность : 53 м. 34 с.
Битрейт : 51 бит/сек
ElementCount : 652
Размер потока : 20,1 Кбайт (0%)
Заголовок : Original
Язык : English
Default : Нет
Forced : Нет

Меню
00:00:00.000 : en:Amazon Original / :Глава 01 / :Глава 01 / :Глава 01 / :Глава 01 / :Глава 01 / :Глава 01 / :Глава 01 / :Глава 01 / :Глава 01 / :Глава 01
00:00:06.000 : en:Previously On
00:02:22.000 : en:Opening Credits
00:03:53.000 : en:Now is a time for preparation
00:07:26.000 : en:Shadow doesn't know what to believe anymore
00:10:50.000 : en:What is the House On The Rock?
00:13:22.000 : en:Mr. World has a request
00:14:29.000 : en:Arrival at Castle Rock
00:18:25.000 : en:Salim is following his heart
00:19:23.000 : en:A fortune reveals everything and nothing
00:23:08.000 : en:Mr. Wednesday greets his new guests
00:25:28.000 : en:Shadow carries heavy burdens
00:26:54.000 : en:Laura wants a fortune
00:27:51.000 : en:People are called to places of power
00:29:03.000 : en:A powerful carnival ride
00:31:40.000 : en:A meeting of the old gods
00:40:01.000 : en:A celebratory meal
00:44:22.000 : en:Mr. World has someone on the inside
00:44:42.000 : en:Laura tries to warn Shadow
00:46:54.000 : en:The celebration turns deadly
00:52:14.000 : en:End Credits


[/align]




1. Открыть торрент
2. Снять галки с тех файлов торрента, которые мы не хотим закачивать. Оставляем только на нужных нам файлах (файле).
3. Нажать О.К.

В клиенте utorrent

Инструкция

1) Открыть торрент


2) Снять галки с тех файлов торрента, которые мы не хотим закачивать:

* либо вручную, снимая с каждого файла галку( скрин №1)
* либо, нажав кнопку "Снять метки (Select None)", сняв сразу со всех файлов(скрин №2)
№1
№2
Оставляем только на нужных нам файлах (файле).
3)Нажать О.К






Внимание!!! 10.05. 2019. РАЗДАЧА ОБНОВЛЕНА. ДОБАВЛЕНЫ -8- СЕРИЯ. Финал Сезона ОБНОВИТЕ ТОРЕНТ ФАЙЛ. ПРИЯТНОГО ПРОСМОТРА . Поблагодарить:
ЯД: 410017546713876


Релиз от: Nikolai.Baranov & PIRATIYA







Время раздачи : 24/7

Этот торрент недоступен для скачивания без регистрации, однако доступен по публичной magnet-ссылке (источники с публичных трекеров). Перед использованием ссылки прочтите, пожалуйста Пользовательское соглашение, а также как можно дольше оставайтесь на раздаче! Для того, чтобы скачать сам торрент-файл (который видит больше источников), а также для того, чтобы поблагодарить релизера, вам необходимо зарегистрироваться. Если регистрироваться лень - вы можете также попробовать скачать релиз по нашим партнерским ссылкам ниже. Кроме того, зарегистрированным пользователям не показывается всплывающая реклама при скачивании.

[underverse.name].t128598.torrent
Трекер: Зарегистрирован   [ 10.05.2019 16:37 ]  

Статус: проверено (by Паукан at 20.08.2019 18:18)
Поблагодарили: 1 человек
Тип торрента: публичный - доступные источники с открытых трекеров: 
Размер: 20,59 GB (занимает 4,7 DVDR, для записи нужно 5 болванок DVDR/RW)
 
 
Похожие темы
Форум Тема Автор Торрент Отв. Посл. сооб.
Зарубежное кино [DVDRip, Low-Res HDRip, и т.д.] Американская история Х / American History X (Тони Кей / Tony Kaye) [1998 г., драма, криминал, BDRip-AVC] MVO (West Video) + Original (Eng) + Sub (Rus, Eng) M-i-i-i-ke
0 | 0

2 | 2569

3

22.02.2016 19:48

T Зарубежное кино [DVDRip, Low-Res HDRip, и т.д.] Американский Пижон / American Dresser (Кармин Каньялоси / Carmine Cangialosi) [2018 г., драма, приключения, WEBRip] MVO (Синема УС) 90ytr90
21 | 0

0 | 580

6

26.09.2018 04:21

Зарубежное кино [DVDRip, Low-Res HDRip, и т.д.] Американский бизон / American Buffalo (Майкл Корренте / Michael Corrente) [1996 г., драма, экранизация, HDRip] DVO + AVO (П.Карцев) 90ytr90
0 | 0

0 | 21431

2

26.11.2016 08:10

Зарубежное кино [DVDRip, Low-Res HDRip, и т.д.] Американская Мэри / American Mary (Джен Соска / Jen Soska, Сильвия Соска / Sylvia Soska) [2012 г., ужасы, триллер, HDRip] DVO Gaarochi
0 | 0

0 | 1781

7

22.03.2013 15:58

Зарубежное кино [DVDRip, Low-Res HDRip, и т.д.] Американская Мэри / American Mary (Джен Соска, Сильвия Соска) [2012 г., Ужасы, BDRip-AVC] DVO (RUS, Влад & Снежинка) + Original (ENG) + Subs (RUS, ENG) Ведьмочка
1 | 0

0 | 1610

4

23.08.2014 17:19

Зарубежное кино [DVDRip, Low-Res HDRip, и т.д.] Американская сила / American Muscle (Рави Дхар) [2014 г., Боевик, BDRip] VO (RUS, ХиХиДок) + Original (ENG) Ведьмочка
1 | 0

1 | 1236

22

30.09.2014 06:00

Зарубежное кино [DVDRip, Low-Res HDRip, и т.д.] Американская история Х / American History X (Тони Кей / Tony Kaye) [1998 г., драма, криминал, BDRip] MVO 90ytr90
13 | 0

0 | 1249

8

22.02.2016 14:18

Зарубежное кино [DVDRip, Low-Res HDRip, и т.д.] Американская история Х / American History X (Тони Кей / Tony Kaye) [1998 г., драма, криминал, BDRip] MVO (West Video) + Original (Eng) + Sub (Rus, Eng) 90ytr90
13 | 1

0 | 1342

1

22.02.2016 15:26

Зарубежное кино [DVDRip, Low-Res HDRip, и т.д.] Американская история Х / American History X (Тони Кей / Tony Kaye) [1998 г., драма, криминал, HDRip-AVC] MVO + Original (Eng) + Sub (Rus) 90ytr90
0 | 0

0 | 1295

7

22.02.2016 16:06

Зарубежное кино [DVDRip, Low-Res HDRip, и т.д.] Американская история Х / American History X (Тони Кей / Tony Kaye) [1998 г., драма, криминал, HDRip-AVC] MVO + Original (Eng) + Sub (Rus, Eng) 90ytr90
5 | 0

0 | 1215

1

22.02.2016 17:34


Яндекс.Метрика powered by Sphinx


В Н И М А Н И Е
Сайт не распространяет и не хранит электронные версии произведений, а лишь бесплатно и без коммерческой выгоды (не требуя взамен платы,
SMS и т.д.) предоставляет доступ к создаваемому пользователями каталогу ссылок на торрент-файлы, которые содержат только списки хеш-сумм.
Убедительная просьба с жалобами обращаться напрямую к пользователю, разместившему торрент файл.

Вверх