Loading...
Error

Уральские пельмени - Муж на щас [05 / 04 / 2019, Юмор, WEB-DL 1080p]

Статистика раздачи
Размер:  2.48 GB   |    Зарегистрирован:  3 года 5 месяцев   |    Скачан:  7 раз

Полного источника не было: 19 часов

Сидов:  0  |  0 KB/s  ]   Личеров:  0  |  0 KB/s  ]

* - сиды/пиры с внешних источников

   
 
Автор Сообщение

дядя1111 Пол:Муж

06-Апр-2019 08:05

Уральские пельмени - Муж на щас


Страна: Россия, СТС
Год выпуска: 05.04.2019
Жанр: тв-шоу, юмор
Продолжительность: 01:12:25
Перевод: не требуется

В ролях:
Дмитрий Брекоткин, Сергей Ершов, Сергей Исаев, Сергей Калугин, Вячеслав Мясников, Александр Попов, Андрей Рожков, Дмитрий Соколов (V), Максим Ярица, Юлия Михалкова, Стефания-Марьяна Гурская, Илана Юрьева, Ксения Корнева


Сюжет фильма:Им платят за косяки, а не прибитая полочка для них, как вызов! Они вырастили руки откуда надо, причем сразу золотые! По утрам они слушают трели дрели, а на работе встречаются с “болгаркой”! Они отремонтируют ваше настроение в шоу «МУЖ НА ЩАС»!

Качество видео: WEB-DL 1080p
Видео: AVC/H.264, 1920x1080 (16:9), ~4615 Kbps
Аудио: AC3, 2 ch, 192 Kbps
Полное имя : G:\Муж на щас. Уральские пельмени (05.04.2019).by.Алехаndr.mkv
Формат : Matroska
Версия формата : Version 4
Размер файла : 2,48 Гбайт
Продолжительность : 1 ч. 12 м.
Общий поток : 4907 Кбит/сек
Программа кодирования : Lavf57.71.100
Библиотека кодирования : Lavf57.71.100
ErrorDetectionType : Per level 1

Видео
Идентификатор : 1
Формат : AVC
Формат/Информация : Advanced Video Codec
Профиль формата : [email protected]
Настройки формата : CABAC / 3 Ref Frames
Параметр CABAC формата : Да
Параметр RefFrames формата : 3 кадра
Идентификатор кодека : V_MPEG4/ISO/AVC
Продолжительность : 1 ч. 12 м.
Битрейт : 4617 Кбит/сек
Ширина : 1920 пикселей
Высота : 1080 пикселей
Соотношение сторон : 16:9
Режим частоты кадров : Постоянный
Частота кадров : 25,000 кадров/сек
Цветовое пространство : YUV
Субдискретизация насыщенности : 4:2:0
Битовая глубина : 8 бит
Тип развёртки : Прогрессивная
Бит/(Пиксели*Кадры) : 0.089
Размер потока : 2,34 Гбайт (94%)
Default : Да
Forced : Нет
Цветовой диапазон : Limited
Основные цвета : BT.709
Характеристики трансфера : BT.709
Коэффициенты матрицы : BT.709

Аудио
Идентификатор : 2
Формат : AC-3
Формат/Информация : Audio Coding 3
Коммерческое название : Dolby Digital
Идентификатор кодека : A_AC3
Продолжительность : 1 ч. 12 м.
Вид битрейта : Постоянный
Битрейт : 192 Кбит/сек
Каналы : 2 канала
Channel layout : L R
Частота : 48,0 КГц
Частота кадров : 31,250 кадров/сек (1536 SPF)
Битовая глубина : 16 бит
Метод сжатия : С потерями
Размер потока : 99,5 Мбайт (4%)
ServiceKind/String : Complete Main
Default : Да
Forced : Нет

Этот торрент недоступен для скачивания без регистрации, однако доступен по публичной magnet-ссылке (источники с публичных трекеров). Перед использованием ссылки прочтите, пожалуйста Пользовательское соглашение, а также как можно дольше оставайтесь на раздаче! Для того, чтобы скачать сам торрент-файл (который видит больше источников), а также для того, чтобы поблагодарить релизера, вам необходимо зарегистрироваться. Если регистрироваться лень - вы можете также попробовать скачать релиз по нашим партнерским ссылкам ниже. Кроме того, зарегистрированным пользователям не показывается всплывающая реклама при скачивании.

[underverse.name].t130218.torrent
Трекер: Зарегистрирован   [ 06.04.2019 08:05 ]  
Статус: проверено (by garry at 24.04.2019 17:12)
Поблагодарили: пока никто не поблагодарил...
Тип торрента: публичный - доступные источники с открытых трекеров: 
Размер: 2.48 GB (занимает 0.57 DVDR, для записи нужно 1 болванка DVDR/RW)
 
 

Яндекс.Метрика powered by Sphinx


В Н И М А Н И Е
Сайт не распространяет и не хранит электронные версии произведений, а лишь бесплатно и без коммерческой выгоды (не требуя взамен платы,
SMS и т.д.) предоставляет доступ к создаваемому пользователями каталогу ссылок на торрент-файлы, которые содержат только списки хеш-сумм.
Убедительная просьба с жалобами обращаться напрямую к пользователю, разместившему торрент файл.

Вверх