Loading...
Error

Уральские пельмени. Шубный приговор [12/04/2019, Юмор, WEB-DL 720p]

Статистика раздачи
Размер:  1.19 GB   |    Зарегистрирован:  3 года 5 месяцев   |    Скачан:  21 раз

Полного источника не было: 2 месяца 20 дней

Сидов:  0  |  0 KB/s  ]   Личеров:  0  |  0 KB/s  ]

* - сиды/пиры с внешних источников

   
 
Автор Сообщение

eXtatik Пол:Муж

13-Апр-2019 06:02

Уральские пельмени. Шубный приговор

Телекомпания: СТС
Жанр: Юмор

Участники: Дмитрий Брекоткин, Сергей Ершов, Сергей Исаев, Сергей Калугин, Вячеслав Мясников, Александр Попов, Андрей Рожков, Дмитрий Соколов, Максим Ярица, Юля Михалкова

Описание:
Они знают все скамейки возле бутиков! Больше всего они радуются, когда жене есть чего надеть. Смс по их банковским картам для них всегда неожиданность. Они всю жизнь таскают пакеты: из дома с мусором, в дом с женскими вещами. И они точно знают, зачем в природе пушные звери. Они вынесут свой «ШУБНЫЙ ПРИГОВОР»!

Продолжительность: 01:13:02
Качество видео: WEB-DL 720p
Субтитры: Отсутствуют

Видео: AVC/H.264, 1280x720 (16:9), ~2090 Kbps
Аудио: AC3, 2 ch, 192 Kbps
 
Общее
Уникальный идентификатор : 73402970146810411463442832543453021793 (0x3738E5D79D623D6AD2D602E8823C0661)
Полное имя : G:\Шубный приговор. Уральские пельмени (12.04.2019).mkv
Формат : Matroska
Версия формата : Version 4
Размер файла : 1,19 Гбайт
Продолжительность : 1 ч. 13 м.
Общий поток : 2328 Кбит/сек
Программа кодирования : Lavf57.71.100
Библиотека кодирования : Lavf57.71.100
ErrorDetectionType : Per level 1

Видео
Идентификатор : 1
Формат : AVC
Формат/Информация : Advanced Video Codec
Профиль формата : [email protected]
Настройки формата : CABAC / 3 Ref Frames
Параметр CABAC формата : Да
Параметр RefFrames формата : 3 кадра
Идентификатор кодека : V_MPEG4/ISO/AVC
Продолжительность : 1 ч. 13 м.
Битрейт : 2090 Кбит/сек
Ширина : 1280 пикселей
Высота : 720 пикселей
Соотношение сторон : 16:9
Режим частоты кадров : Постоянный
Частота кадров : 25,000 кадров/сек
Цветовое пространство : YUV
Субдискретизация насыщенности : 4:2:0
Битовая глубина : 8 бит
Тип развёртки : Прогрессивная
Бит/(Пиксели*Кадры) : 0.091
Размер потока : 1,07 Гбайт (90%)
Default : Да
Forced : Нет
Цветовой диапазон : Limited
Основные цвета : BT.709
Характеристики трансфера : BT.709
Коэффициенты матрицы : BT.709

Аудио
Идентификатор : 2
Формат : AC-3
Формат/Информация : Audio Coding 3
Коммерческое название : Dolby Digital
Идентификатор кодека : A_AC3
Продолжительность : 1 ч. 13 м.
Вид битрейта : Постоянный
Битрейт : 192 Кбит/сек
Каналы : 2 канала
Channel layout : L R
Частота : 48,0 КГц
Частота кадров : 31,250 кадров/сек (1536 SPF)
Битовая глубина : 16 бит
Метод сжатия : С потерями
Задержка видео : -40 мс.
Размер потока : 100 Мбайт (8%)
ServiceKind/String : Complete Main
Default : Да
Forced : Нет

Скриншоты:
pic pic pic pic

Этот торрент доступен для скачивания без регистрации. Перед тем, как его скачать, прочтите, пожалуйста Пользовательское соглашение, а также как можно дольше оставайтесь на раздаче! Также вы можете выкладывать этот торрент или ссылку на него на других интернет-ресурсах, в том числе на торрент трекерах. Для получение более подробной информации о релизе, а также для того, чтобы поблагодарить релизера, вам необходимо зарегистрироваться.

[underverse.name].t130889.torrent
Трекер: Зарегистрирован   [ 13.04.2019 06:02 ]   [ торрент доступен для скачивания без регистрации ]

Статус: проверено (by 90ytr90 at 13.04.2019 06:37)
Поблагодарили: пока никто не поблагодарил...
Тип торрента: публичный - доступные источники с открытых трекеров: 
Размер: 1.19 GB (занимает 0.27 DVDR, для записи нужно 1 болванка DVDR/RW)
 
 

Яндекс.Метрика powered by Sphinx


В Н И М А Н И Е
Сайт не распространяет и не хранит электронные версии произведений, а лишь бесплатно и без коммерческой выгоды (не требуя взамен платы,
SMS и т.д.) предоставляет доступ к создаваемому пользователями каталогу ссылок на торрент-файлы, которые содержат только списки хеш-сумм.
Убедительная просьба с жалобами обращаться напрямую к пользователю, разместившему торрент файл.

Вверх