Loading...
Error

Comedy Баттл (Кирилл Пухонто) (сезон 9, выпуск 12) [2019, Юмор, WEB-DLRip]

Статистика раздачи
Размер:  600 MB   |    Зарегистрирован:  3 года 5 месяцев   |    Скачан:  3 раза

Полного источника не было: 2 года 10 месяцев

Сидов:  0  |  0 KB/s  ]   Личеров:  0  |  0 KB/s  ]

* - сиды/пиры с внешних источников

   
 
Автор Сообщение

eXtatik Пол:Муж

13-Апр-2019 06:07

Comedy Баттл (2019) WEB-DLRip (сезон 9, выпуск 12)

Производство: Россия | Comedy Club Production, Телеканал ТНТ
Жанр: Юмор

Ведущий: Павел Воля
Режиссер: Кирилл Пухонто

Описание:
У смешного не бывает последних сезонов и как вы дорогие зрители видите битва за самые смешные пародии и шутки снова с нами. За годы существования проект "Comedy Баттл" не раз менял своё название и концепцию, но принцип отбора лучших юмористов так и остался в приоритете, а от неудачников избавляются давним способом – сцена сама сбрасывает их вниз. Комедийное шоу канала ТНТ, в котором может принять участие каждый, кто считает себя смешным. Победитель сезона получит 3 миллиона рублей и возможность заключить контракт с любой юмористической программой на ТНТ.

Возраст: 16+ (зрителям, достигшим 16 лет)

Продолжительность: 00:45:18
Качество видео: WEB-DLRip

Видео: Xvid, 720x400 (16:9), ~1649 Kbps
Аудио: AC3, 2 ch, 48.0 kHz, 192 Kbps
 
General
Complete name : F:\Comedy_Баттл_s09_e12_WEB-DLRip.avi
Format : AVI
Format/Info : Audio Video Interleave
File size : 600 MiB
Duration : 45 min 18 s
Overall bit rate : 1 850 kb/s
Writing application : VirtualDubMod 1.5.10.3 | www.virtualdub-fr.org || (build 2550/release)
Writing library : VirtualDubMod build 2550/release

Video
ID : 0
Format : MPEG-4 Visual
Format profile : Advanced [email protected]
Format settings : BVOP1
Format settings, BVOP : 1
Format settings, QPel : No
Format settings, GMC : No warppoints
Format settings, Matrix : Default (MPEG)
Codec ID : XVID
Codec ID/Hint : XviD
Duration : 45 min 18 s
Bit rate : 1 649 kb/s
Width : 720 pixels
Height : 400 pixels
Display aspect ratio : 16:9
Frame rate : 25.000 FPS
Color space : YUV
Chroma subsampling : 4:2:0
Bit depth : 8 bits
Scan type : Progressive
Compression mode : Lossy
Bits/(Pixel*Frame) : 0.229
Stream size : 534 MiB (89%)
Writing library : XviD 73

Audio
ID : 1
Format : AC-3
Format/Info : Audio Coding 3
Commercial name : Dolby Digital
Codec ID : 2000
Duration : 45 min 18 s
Bit rate mode : Constant
Bit rate : 192 kb/s
Channel(s) : 2 channels
Channel layout : L R
Sampling rate : 48.0 kHz
Frame rate : 31.250 FPS (1536 SPF)
Bit depth : 16 bits
Compression mode : Lossy
Stream size : 62.2 MiB (10%)
Alignment : Split accross interleaves
Interleave, duration : 40 ms (1.00 video frame)
Interleave, preload duratio : 500 ms
Service kind : Complete Main

Скриншоты:
pic pic pic pic

Этот торрент недоступен для скачивания без регистрации, однако доступен по публичной magnet-ссылке (источники с публичных трекеров). Перед использованием ссылки прочтите, пожалуйста Пользовательское соглашение, а также как можно дольше оставайтесь на раздаче! Для того, чтобы скачать сам торрент-файл (который видит больше источников), а также для того, чтобы поблагодарить релизера, вам необходимо зарегистрироваться. Если регистрироваться лень - вы можете также попробовать скачать релиз по нашим партнерским ссылкам ниже. Кроме того, зарегистрированным пользователям не показывается всплывающая реклама при скачивании.

[underverse.name].t130890.torrent
Трекер: Зарегистрирован   [ 13.04.2019 06:07 ]  
Статус: проверено (by 90ytr90 at 13.04.2019 06:46)
Поблагодарили: 1 человек
Тип торрента: публичный - доступные источники с открытых трекеров: 
Размер: 600 MB (занимает 0.13 DVDR, для записи нужно 1 болванка DVDR/RW)
 
 

Яндекс.Метрика powered by Sphinx


В Н И М А Н И Е
Сайт не распространяет и не хранит электронные версии произведений, а лишь бесплатно и без коммерческой выгоды (не требуя взамен платы,
SMS и т.д.) предоставляет доступ к создаваемому пользователями каталогу ссылок на торрент-файлы, которые содержат только списки хеш-сумм.
Убедительная просьба с жалобами обращаться напрямую к пользователю, разместившему торрент файл.

Вверх