Loading...
Error

Самые быстрые тачки на грязном Юге / Fastest Cars in the Dirty South / Сезон 1 (0-8 серии из 8 ) (Дэвид Р. Митчелл, Роберт Уэй) [2019 г., Документальный, спорт, WEBRip] DVO (IdeaFilm)

Статистика раздачи
Размер:  4,83 GB   |    Зарегистрирован:  1 год 9 месяцев   |    Скачан:  0 раз

Полного источника не было: 1 год 7 месяцев

Сидов:  0  |  0 KB/s  ]   Личеров:  0  |  0 KB/s  ]

* - сиды/пиры с внешних источников

   
 
Автор Сообщение

friendlyman Пол:Муж

15-Июл-2019 20:58

Самые быстрые тачки на грязном Юге / Fastest Cars in the Dirty South / Сезон 1 (0-8 серии из 8 )


Год выпуска: 2019
Жанр: Документальный, спорт
Страна: США MotorTrend Group
Режиссер: Дэвид Р. Митчелл, Роберт Уэй
В ролях: Эрик Мэлоун, Брант Арнольд
Сюжет фильма:
Телевизионный проект, который расскажет нам о мире гонок. Отправляемся на южное побережье, где нередко устраивают крутые заезды, в которых участвуют настоящие профессионалы своего дела. Конечно же, участникам этих гонок приходится непросто, ведь необходимо не только уметь хорошо водить, но и знатно настроить свою тачку для продолжительных заездов. Каждый раз действующим лицам предстоит демонстрировать своё мастерство, однако далеко не к ним будет приковано внимание зрителей. Авторов больше всего интересует изучение автомобилей участников. Эти тачки считаются самыми быстрыми на грязном юге, поэтому к ним приковано особое внимание. Тюнингованные и апгрейднутые машины выглядят по-настоящему круто. Кажется, что им нет равных в этих землях, однако, опять же, на свои места их расставит гонка в реальном времени.

Качество видео: WEBRip

Продолжительность: 00:47:00
Формат: AVI
Видео: XviD, 720x400, 1500 kbps
Аудио: двухголосый закадровый [профессиональный, IdeaFilm], AC3 2.0, 192 kbps
Релиз от:

Доп. инфо: присутствует реклама

Код:

Общее
Полное имя                               : D:\IdeaFilm\Fastest.Cars.in.the.Dirty.South.S01.WEBRip.400p.IdeaFilm\Fastest.Cars.in.the.Dirty.South.S01E00.WEBRip.400p.IdeaFilm.avi
Формат                                   : AVI
Формат/Информация                        : Audio Video Interleave
Размер файла                             : 542 Мбайт
Продолжительность                        : 44 м. 33 с.
Общий поток                              : 1701 Кбит/сек
Программа кодирования                    : VirtualDubMod 1.5.10.3 | www.virtualdub-fr.org || (build 2550/release)
Библиотека кодирования                   : VirtualDubMod build 2550/release

Видео
Идентификатор                            : 0
Формат                                   : MPEG-4 Visual
Профиль формата                          : Advanced [email protected]
Настройки формата                        : BVOP2
Параметр BVOP формата                    : 2
Параметр QPel формата                    : Нет
Параметр GMC формата                     : Без точки перехода
Параметр матрицы формата                 : Default (MPEG)
Идентификатор кодека                     : XVID
Идентификатор кодека/Подсказка           : XviD
Продолжительность                        : 44 м. 33 с.
Битрейт                                  : 1500 Кбит/сек
Ширина                                   : 720 пикселей
Высота                                   : 400 пикселей
Соотношение сторон                       : 16:9
Частота кадров                           : 23,976 (24000/1001) кадра/сек
Цветовое пространство                    : YUV
Субдискретизация насыщенности            : 4:2:0
Битовая глубина                          : 8 бит
Тип развёртки                            : Прогрессивная
Метод сжатия                             : С потерями
Бит/(Пиксели*Кадры)                      : 0.217
Размер потока                            : 478 Мбайт (88%)
Библиотека кодирования                   : XviD 1.2.1 (UTC 2008-12-04)

Аудио
Идентификатор                            : 1
Формат                                   : AC-3
Формат/Информация                        : Audio Coding 3
Коммерческое название                    : Dolby Digital
Идентификатор кодека                     : 2000
Продолжительность                        : 44 м. 33 с.
Вид битрейта                             : Постоянный
Битрейт                                  : 192 Кбит/сек
Каналы                                   : 2 канала
ChannelLayout                            : L R
Частота                                  : 48,0 КГц
Частота кадров                           : 31,250 кадров/сек (1536 SPF)
Битовая глубина                          : 16 бит
Метод сжатия                             : С потерями
Размер потока                            : 61,2 Мбайт (11%)
Выравнивание                             : Разделение по промежуткам
Продолжительность промежутка             : 42  мс. (1,00 видеокадр)
Время предзагрузки промежутка            : 500  мс.
ServiceKind/String                       : Complete Main

Семпл: http://sendfile.su/1506001

picpicpic
Для увеличения картинки щелкните мышкой по превью

Этот торрент недоступен для скачивания без регистрации, однако доступен по публичной magnet-ссылке (источники с публичных трекеров). Перед использованием ссылки прочтите, пожалуйста Пользовательское соглашение, а также как можно дольше оставайтесь на раздаче! Для того, чтобы скачать сам торрент-файл (который видит больше источников), а также для того, чтобы поблагодарить релизера, вам необходимо зарегистрироваться. Если регистрироваться лень - вы можете также попробовать скачать релиз по нашим партнерским ссылкам ниже. Кроме того, зарегистрированным пользователям не показывается всплывающая реклама при скачивании.

[underver.se].t142846.torrent
Трекер: Зарегистрирован   [ 02.09.2019 17:33 ]  

Статус: проверено (by Паукан at 03.09.2019 07:17)
Поблагодарили: пока никто не поблагодарил...
Тип торрента: публичный - доступные источники с открытых трекеров: 
Размер: 4,83 GB (занимает 1,1 DVDR, для записи нужно 2 болванки DVDR/RW)
добавлена 9 серия
 
 
Похожие темы
Форум Тема Автор Торрент Отв. Посл. сооб.
Документальное кино [HDDVDRip / BDRip / WEB-DL / HDTV 1080/720р] Самые быстрые тачки на грязном Юге / Fastest Cars in the Dirty South / Сезон 1 (0-8 серии из 8 ) (Дэвид Р. Митчелл, Роберт Уэй) [2019 г., Документальный, спорт, WEBRip 1080p] MVO (IdeaFilm) friendlyman
0 | 0

1 | 808

0

16.07.2019 06:07

Документальное кино [HDDVDRip / BDRip / WEB-DL / HDTV 1080/720р] Самые быстрые тачки на грязном Юге / Fastest Cars in the Dirty South / Сезон 1 (0-8 серии из 8 ) (Дэвид Р. Митчелл, Роберт Уэй) [2019 г., Документальный, спорт, WEBRip 720p] DVO (IdeaFilm) friendlyman
0 | 0

1 | 774

0

16.07.2019 06:07



Последний раз редактировалось: friendlyman (02.09.2019 17:33), всего редактировалось 7 раз(а)

16-Июл-2019 06:06

Топик был перенесен из форума Зарубежные сериалы в форум Формула-1 и автоспорт


90ytr90
 

Яндекс.Метрика powered by Sphinx


В Н И М А Н И Е
Сайт не распространяет и не хранит электронные версии произведений, а лишь бесплатно и без коммерческой выгоды (не требуя взамен платы,
SMS и т.д.) предоставляет доступ к создаваемому пользователями каталогу ссылок на торрент-файлы, которые содержат только списки хеш-сумм.
Убедительная просьба с жалобами обращаться напрямую к пользователю, разместившему торрент файл.

Вверх