Loading...
Error

Уральские пельмени - Азбука Уральских пельменей. K [25 / 10 / 2019, Юмор, WEB-DL 1080p]

Статистика раздачи
Размер:  2.3 GB   |    Зарегистрирован:  2 года 11 месяцев   |    Скачан:  10 раз

Полного источника не было: 6 месяцев

Сидов:  0  |  0 KB/s  ]   Личеров:  0  |  0 KB/s  ]

* - сиды/пиры с внешних источников

   
 
Автор Сообщение

дядя1111 Пол:Муж

26-Окт-2019 10:24

Уральские пельмени - Азбука Уральских пельменей. K [25 / 10 / 2019, Юмор, WEB-DL 1080p]


Страна: Россия, СТС
Год выпуска: 25.10.2019
Жанр: тв-шоу, юмор
Продолжительность: 01:12:39
Перевод: не требуется

В ролях:
Дмитрий Брекоткин, Сергей Ершов, Сергей Исаев, Сергей Калугин, Вячеслав Мясников, Александр Попов, Андрей Рожков, Дмитрий Соколов (V), Максим Ярица, Юлия Михалкова, Стефания-Марьяна Гурская, Илана Юрьева, Ксения Корнева


Сюжет фильма: Легендарные чемпионы КВН, всеми любимые посланники юмора в уморительном шоу! Комедийная программа “Уральские пельмени” - передача, созданная неповторимой командой по производству юмора, которая прошла испытание временем и имеет целую армию поклонников. Своими выступлениями “Уральские пельмени” установили очень высокую планку комедийного шоу и не перестают удивлять зрителей великолепным, всегда свежим, ярким и необычным юмором, который нельзя спутать ни с чем. Смешные номера, искрометные шутки и мощный заряд позитива никого не оставят равнодушным.

Качество видео: WEB-DL
Формат: MKV
Видео: AVC/H.264, 1920x1080 (16:9), ~4245 Kbps
Аудио: AC3, 2 ch, 192 Kbps, Original
Общее 
Уникальный идентификатор : 91963227956080026062633300015001728373 (0x452F79340A27FEC60FDABA56B4E57575)
Полное имя : G:\Азбука Уральских пельменей. К (25.10.2019)
Формат : Matroska
Версия формата : Version 4
Размер файла : 2,30 Гбайт
Продолжительность : 1 ч. 12 м.
Общий поток : 4528 Кбит/сек
Программа кодирования : Lavf58.20.100
Библиотека кодирования : Lavf58.20.100
ErrorDetectionType : Per level 1

Видео
Идентификатор : 1
Формат : AVC
Формат/Информация : Advanced Video Codec
Профиль формата : [email protected]
Настройки формата : CABAC / 3 Ref Frames
Параметр CABAC формата : Да
Параметр RefFrames формата : 3 кадра
Идентификатор кодека : V_MPEG4/ISO/AVC
Продолжительность : 1 ч. 12 м.
Битрейт : 4246 Кбит/сек
Ширина : 1920 пикселей
Высота : 1080 пикселей
Соотношение сторон : 16:9
Режим частоты кадров : Постоянный
Частота кадров : 25,000 кадров/сек
Цветовое пространство : YUV
Субдискретизация насыщенности : 4:2:0
Битовая глубина : 8 бит
Тип развёртки : Прогрессивная
Бит/(Пиксели*Кадры) : 0.082
Размер потока : 2,15 Гбайт (94%)
Default : Да
Forced : Нет
Цветовой диапазон : Limited
Основные цвета : BT.709
Характеристики трансфера : BT.709
Коэффициенты матрицы : BT.709

Аудио
Идентификатор : 2
Формат : AC-3
Формат/Информация : Audio Coding 3
Коммерческое название : Dolby Digital
Идентификатор кодека : A_AC3
Продолжительность : 1 ч. 12 м.
Вид битрейта : Постоянный
Битрейт : 192 Кбит/сек
Каналы : 2 канала
ChannelLayout : L R
Частота : 48,0 КГц
Частота кадров : 31,250 кадров/сек (1536 SPF)
Метод сжатия : С потерями
Размер потока : 99,8 Мбайт (4%)
ServiceKind/String : Complete Main
Default : Да
Forced : Нет

Этот торрент недоступен для скачивания без регистрации, однако доступен по публичной magnet-ссылке (источники с публичных трекеров). Перед использованием ссылки прочтите, пожалуйста Пользовательское соглашение, а также как можно дольше оставайтесь на раздаче! Для того, чтобы скачать сам торрент-файл (который видит больше источников), а также для того, чтобы поблагодарить релизера, вам необходимо зарегистрироваться. Если регистрироваться лень - вы можете также попробовать скачать релиз по нашим партнерским ссылкам ниже. Кроме того, зарегистрированным пользователям не показывается всплывающая реклама при скачивании.

[underver.se].t148402.torrent
Трекер: Зарегистрирован   [ 26.10.2019 10:24 ]  
Статус: проверено (by eXtatik at 08.11.2019 10:18)
Поблагодарили: пока никто не поблагодарил...
Тип торрента: публичный - доступные источники с открытых трекеров: 
Размер: 2.3 GB (занимает 0.52 DVDR, для записи нужно 1 болванка DVDR/RW)
 
 

Яндекс.Метрика powered by Sphinx


В Н И М А Н И Е
Сайт не распространяет и не хранит электронные версии произведений, а лишь бесплатно и без коммерческой выгоды (не требуя взамен платы,
SMS и т.д.) предоставляет доступ к создаваемому пользователями каталогу ссылок на торрент-файлы, которые содержат только списки хеш-сумм.
Убедительная просьба с жалобами обращаться напрямую к пользователю, разместившему торрент файл.

Вверх