Loading...
Error

(Trance, Progressive Trance, Progressive House) Алина Секвенция (Alina Sequence) - Best Remixes (2003) [FLAC (Image+.Cue), Lossless]

Статистика раздачи
Размер:  494 MB   |    Зарегистрирован:  2 года 10 месяцев   |    Скачан:  4 раза

Полного источника не было: 10 месяцев

Сидов:  0  |  0 KB/s  ]   Личеров:  0  |  0 KB/s  ]

* - сиды/пиры с внешних источников

   
 
Автор Сообщение

Бишеп Пол:Муж

18-Ноя-2019 18:22

Алина Секвенция (Alina Sequence) - Best Remixes

Жанр: Trance, Progressive Trance, Progressive House
Год выпуска: 2003
Носитель: CD
Производитель диска: Style Records - SV-004-01 / СВ--006-01
Аудиокодек: FLAC
Тип рипа: Image+.CUE
Битрейт аудио: lossless
Продолжительность: 01:13:52


Треклист:
01. Shannon – Give Me Tonight ‘2003 (Sequence Radio Edit) (4:28)
02. Alina Sequence – Stars (Freedom ‘2001 Sequence Mix) (6:59)
03. Лика Star – Я вспоминаю тебя как снег (Sequence Remix) (3:55)
04. Melo-Dy – Облака (Sequence Tandem Remix) (8:17)
05. Alina Sequence – Dance Tonight (Radio Edit) (4:35)
06. Космонавтика – Free Sky (Night Sky Sequence Remix) (7:12)
07. Virtual Server – Fallen (Alina Sequence Heaven Remix) (8:08)
08. Спутник 55 – Воздушный поцелуй (Sequence Flying Remix) (7:54)
09. BT – Dreaming (Sequence Love Remix) (7:41)
10. Ляпис Трубецкой – Красота (Sequence Remix) (7:01)
11. Лика Star – Я вспоминаю тебя как снег (Always Remember You Sequence Club Remix) (7:41)

Exact Audio Copy V1.3 from 2. September 2016 

EAC extraction logfile from 26. March 2019, 22:07

Алина Секвенция / Лучшие ремиксы

Used drive : PIONEER DVD+-RW DR-K17Y Adapter: 0 ID: 0

Read mode : Secure
Utilize accurate stream : Yes
Defeat audio cache : Yes
Make use of C2 pointers : No

Read offset correction : 48
Overread into Lead-In and Lead-Out : No
Fill up missing offset samples with silence : Yes
Delete leading and trailing silent blocks : No
Null samples used in CRC calculations : Yes
Used interface : Installed external ASPI interface

Used output format : User Defined Encoder
Selected bitrate : 128 kBit/s
Quality : High
Add ID3 tag : No
Command line compressor : C:\Program Files (x86)\Exact Audio Copy\Flac\flac.exe
Additional command line options : -V -8 -T "Date=%year%" -T "Genre=%genre%" %source%

TOC of the extracted CD

Track | Start | Length | Start sector | End sector
---------------------------------------------------------
1 | 0:00.00 | 4:28.36 | 0 | 20135
2 | 4:28.36 | 6:59.33 | 20136 | 51593
3 | 11:27.69 | 3:55.10 | 51594 | 69228
4 | 15:23.04 | 8:16.50 | 69229 | 106478
5 | 23:39.54 | 4:34.73 | 106479 | 127101
6 | 28:14.52 | 7:12.25 | 127102 | 159526
7 | 35:27.02 | 8:07.69 | 159527 | 196120
8 | 43:34.71 | 7:53.59 | 196121 | 231654
9 | 51:28.55 | 7:41.14 | 231655 | 266243
10 | 59:09.69 | 7:01.02 | 266244 | 297820
11 | 66:10.71 | 7:41.28 | 297821 | 332423

Range status and errors

Selected range

Filename E:\Music\Electronic\Trance\Алина Секвенция\2003 Лучшие ремиксы\Алина Секвенция - Лучшие ремиксы.wav

Peak level 100.0 %
Extraction speed 2.0 X
Range quality 100.0 %
Test CRC 2A2A44D3
Copy CRC 2A2A44D3
Copy OK

No errors occurred

AccurateRip summary
Track 1 not present in database
Track 2 not present in database
Track 3 not present in database
Track 4 not present in database
Track 5 not present in database
Track 6 not present in database
Track 7 not present in database
Track 8 not present in database
Track 9 not present in database
Track 10 not present in database
Track 11 not present in database
None of the tracks are present in the AccurateRip database

End of status report

==== Log checksum 634FB5B1E00F5A90001F11BA1F71DA2062921ABA774386E64DB5D76B4943F489 ====
REM GENRE Trance 
REM DATE 2003
REM DISCID 9C11500B
REM COMMENT "ExactAudioCopy v1.3"
PERFORMER "Алина Секвенция"
TITLE "Best Remixes"
FILE "Алина Секвенция - Лучшие ремиксы.flac" WAVE
TRACK 01 AUDIO
TITLE "Give Me Tonight ‘2003 (Sequence Radio Edit)"
PERFORMER "Shannon"
FLAGS DCP
INDEX 01 00:00:00
TRACK 02 AUDIO
TITLE "Stars (Freedom ‘2001 Sequence Mix)"
PERFORMER "Alina Sequence"
FLAGS DCP
INDEX 01 04:28:36
TRACK 03 AUDIO
TITLE "Я вспоминаю тебя, как снег (Sequence Remix)"
PERFORMER "Лика Star"
FLAGS DCP
INDEX 01 11:27:69
TRACK 04 AUDIO
TITLE "Облака (Sequence Tandem Remix)"
PERFORMER "Melo-Dy"
FLAGS DCP
INDEX 01 15:23:04
TRACK 05 AUDIO
TITLE "Dance Tonight (Radio Edit)"
PERFORMER "Alina Sequence"
FLAGS DCP
INDEX 01 23:39:54
TRACK 06 AUDIO
TITLE "Free Sky (Night Sky Sequence Remix)"
PERFORMER "Космонавтика"
FLAGS DCP
INDEX 01 28:14:52
TRACK 07 AUDIO
TITLE "Fallen (Alina Sequence Heaven Remix)"
PERFORMER "Virtual Server"
FLAGS DCP
INDEX 01 35:27:02
TRACK 08 AUDIO
TITLE "Воздушный поцелуй (Sequence Flying Remix)"
PERFORMER "Спутник 55"
FLAGS DCP
INDEX 01 43:34:71
TRACK 09 AUDIO
TITLE "Dreaming (Sequence Love Remix)"
PERFORMER "BT"
FLAGS DCP
INDEX 01 51:28:55
TRACK 10 AUDIO
TITLE "Красота (Sequence Remix)"
PERFORMER "Ляпис Трубецкой"
FLAGS DCP
INDEX 01 59:09:69
TRACK 11 AUDIO
TITLE "Я вспоминаю тебя, как снег (Always Remember You Sequence Club Remix)"
PERFORMER "Лика Star"
FLAGS DCP
INDEX 01 66:10:71

Этот торрент недоступен для скачивания без регистрации, однако доступен по публичной magnet-ссылке (источники с публичных трекеров). Перед использованием ссылки прочтите, пожалуйста Пользовательское соглашение, а также как можно дольше оставайтесь на раздаче! Для того, чтобы скачать сам торрент-файл (который видит больше источников), а также для того, чтобы поблагодарить релизера, вам необходимо зарегистрироваться. Если регистрироваться лень - вы можете также попробовать скачать релиз по нашим партнерским ссылкам ниже. Кроме того, зарегистрированным пользователям не показывается всплывающая реклама при скачивании.

[underver.se].t151419.torrent
Трекер: Зарегистрирован   [ 18.11.2019 18:22 ]  
Статус: проверено (by Бишеп at 18.11.2019 18:22)
Поблагодарили: 1 человек
Тип торрента: публичный - доступные источники с открытых трекеров: 
Размер: 494 MB (занимает 0.11 DVDR, для записи нужно 1 болванка DVDR/RW)
 
 

Яндекс.Метрика powered by Sphinx


В Н И М А Н И Е
Сайт не распространяет и не хранит электронные версии произведений, а лишь бесплатно и без коммерческой выгоды (не требуя взамен платы,
SMS и т.д.) предоставляет доступ к создаваемому пользователями каталогу ссылок на торрент-файлы, которые содержат только списки хеш-сумм.
Убедительная просьба с жалобами обращаться напрямую к пользователю, разместившему торрент файл.

Вверх