Loading...
Error

Исцеляющая / Гармония / Harmony (Кори Пирсон / Corey Pearson) [2018 г., фэнтези, триллер, мелодрама, BDRemux 1080p] Dub (iTunes) + Original (Eng) + Sub (Eng)

Статистика раздачи
Размер:  20,03 GB   |    Зарегистрирован:  8 месяцев   |    Скачан:  7 раз

Полного источника не было: 5 месяцев 19 дней

Сидов:  0  |  0 KB/s  ]   Личеров:  0  |  0 KB/s  ]

* - сиды/пиры с внешних источников

   
 
Автор Сообщение

90ytr90 

09-Янв-2020 05:39

Исцеляющая / Гармония / Harmony
«Even in love, there's fear»

Страна: Австралия
Год выпуска: 2018
Жанр: фэнтези, триллер, мелодрама
Продолжительность: 01:30:09
Озвучивание:
  • профессиональное (полное дублирование) [iTunes]
  • оригинальная звуковая дорожка [английский]

Режиссёр: Кори Пирсон / Corey Pearson

В ролях:
Жаклин Маккензи, Имон Фэррен, Джессика Фалькхолт, Льюис Фиц-Джералд, Тесса Джеймс, Джером Мейер, Сальваторе Коко, Акос Армонт, Тириел Мора, Антониетте Йесуэ


Сюжет фильма:
У этой девушки есть невероятный дар - она может забирать у людей тревогу и страх очищая их души. Но у каждого дара есть цена.

  • Дата мировой премьеры: 4 октября 2018
  • Дата российской премьеры: 19 сентября 2019, «Кинологистика»
             
Качество видео: BDRemux 1080p
Формат: MKV
Видео: AVC, 1920x1080 (16:9), 27.6 Mbps, 23.976 (24000/1001) fps, 0.555 bit/pixel
Аудио #1: AC3, 384 kbps, 6 ch, 48 kHz, Dub [iTunes]
Аудио #2: DTS-HD MA, 3837 kbps, 6 ch, 48 kHz, Original [English]
Субтитры: English (full)
Навигация по главам: есть (10)

Сборка: seleZen
General 
Unique ID : 315408505993495740668636483072966078744 (0xED4977F8D6C71B8475AB1A2E54213118)
Complete name : E:Video111Harmony.2018.BDREMUX.1080p.seleZen.mkv
Format : Matroska
Format version : Version 4
File size : 20.0 GiB
Duration : 1 h 30 min
Overall bit rate mode : Variable
Overall bit rate : 31.8 Mb/s
Movie name : Harmony 2018 from селезень
Encoded date : UTC 2020-01-08 20:47:28
Writing application : mkvmerge v40.0.0 ('Old Town Road + Pony') 64-bit
Writing library : libebml v1.3.9 + libmatroska v1.5.2

Video
ID : 1
Format : AVC
Format/Info : Advanced Video Codec
Format profile : [email protected]
Format settings : CABAC / 4 Ref Frames
Format settings, CABAC : Yes
Format settings, Reference : 4 frames
Codec ID : V_MPEG4/ISO/AVC
Duration : 1 h 30 min
Bit rate mode : Variable
Bit rate : 27.6 Mb/s
Maximum bit rate : 35.0 Mb/s
Width : 1 920 pixels
Height : 1 080 pixels
Display aspect ratio : 16:9
Frame rate mode : Constant
Frame rate : 23.976 (24000/1001) FPS
Color space : YUV
Chroma subsampling : 4:2:0
Bit depth : 8 bits
Scan type : Progressive
Bits/(Pixel*Frame) : 0.555
Stream size : 17.4 GiB (87%)
Language : English
Default : Yes
Forced : No
Color range : Limited
Color primaries : BT.709
Transfer characteristics : BT.709
Matrix coefficients : BT.709

Audio #1
ID : 2
Format : AC-3
Format/Info : Audio Coding 3
Commercial name : Dolby Digital
Codec ID : A_AC3
Duration : 1 h 30 min
Bit rate mode : Constant
Bit rate : 384 kb/s
Channel(s) : 6 channels
Channel layout : L R C LFE Ls Rs
Sampling rate : 48.0 kHz
Frame rate : 31.250 FPS (1536 SPF)
Compression mode : Lossy
Stream size : 248 MiB (1%)
Title : iTunes
Language : Russian
Service kind : Complete Main
Default : Yes
Forced : Yes

Audio #2
ID : 3
Format : DTS XLL
Format/Info : Digital Theater Systems
Commercial name : DTS-HD Master Audio
Codec ID : A_DTS
Duration : 1 h 30 min
Bit rate mode : Variable
Bit rate : 3 837 kb/s
Channel(s) : 6 channels
Channel layout : C L R Ls Rs LFE
Sampling rate : 48.0 kHz
Frame rate : 93.750 FPS (512 SPF)
Bit depth : 24 bits
Compression mode : Lossless
Stream size : 2.42 GiB (12%)
Title : Original
Language : English
Default : No
Forced : No

Text
ID : 4
Format : UTF-8
Codec ID : S_TEXT/UTF8
Codec ID/Info : UTF-8 Plain Text
Duration : 1 h 28 min
Bit rate : 38 b/s
Count of elements : 1001
Stream size : 24.7 KiB (0%)
Title : Full
Language : English
Default : No
Forced : No

Menu
00:00:00.000 : en:Chapter 01
00:09:46.336 : en:Chapter 02
00:19:59.198 : en:Chapter 03
00:30:10.392 : en:Chapter 04
00:41:53.886 : en:Chapter 05
00:50:18.933 : en:Chapter 06
00:59:26.438 : en:Chapter 07
01:10:15.753 : en:Chapter 08
01:19:44.029 : en:Chapter 09
01:27:26.825 : en:Chapter 10


pic pic pic pic pic

Этот торрент недоступен для скачивания без регистрации, однако доступен по публичной magnet-ссылке (источники с публичных трекеров). Перед использованием ссылки прочтите, пожалуйста Пользовательское соглашение, а также как можно дольше оставайтесь на раздаче! Для того, чтобы скачать сам торрент-файл (который видит больше источников), а также для того, чтобы поблагодарить релизера, вам необходимо зарегистрироваться. Если регистрироваться лень - вы можете также попробовать скачать релиз по нашим партнерским ссылкам ниже. Кроме того, зарегистрированным пользователям не показывается всплывающая реклама при скачивании.

[underver.se].t156483.torrent
Трекер: Зарегистрирован   [ 09.01.2020 05:39 ]  

Статус: проверено (by 90ytr90 at 09.01.2020 09:32)
Поблагодарили: 2 человека
Тип торрента: публичный - доступные источники с открытых трекеров: 
Размер: 20,03 GB (занимает 4,58 DVDR, для записи нужно 5 болванок DVDR/RW)
 
 
Похожие темы
Форум Тема Автор Торрент Отв. Посл. сооб.
Зарубежное кино [DVDRip, Low-Res HDRip, и т.д.] Исцеляющая / Гармония / Harmony (Кори Пирсон / Corey Pearson) [2018 г., фэнтези, триллер, мелодрама, BDRip] Dub (iTunes) 90ytr90
95 | 3

0 | 451

29

09.01.2020 05:03

T Зарубежное кино [DVDRip, Low-Res HDRip, и т.д.] Исцеляющая / Гармония / Harmony (Кори Пирсон / Corey Pearson) [2018 г., фэнтези, триллер, мелодрама, WEBRip] MVO (@[email protected]) 90ytr90
3 | 0

0 | 346

10

07.07.2019 07:13

T Зарубежное кино [HDDVDRip / BDRip / WEB-DL / HDTV 1080/720р] Исцеляющая / Гармония / Harmony (Кори Пирсон / Corey Pearson) [2018 г., фэнтези, триллер, мелодрама, WEBRip 720p] MVO (@[email protected]) 90ytr90
1 | 1

0 | 341

3

07.07.2019 07:15

T Зарубежное кино [HDDVDRip / BDRip / WEB-DL / HDTV 1080/720р] Исцеляющая / Гармония / Harmony (Кори Пирсон / Corey Pearson) [2018 г., фэнтези, триллер, мелодрама, WEBRip 1080p] MVO (@[email protected]) 90ytr90
0 | 0

0 | 372

11

07.07.2019 07:15

Зарубежное кино [HDDVDRip / BDRip / WEB-DL / HDTV 1080/720р] Исцеляющая / Гармония / Harmony (Кори Пирсон / Corey Pearson) [2018 г., фэнтези, триллер, мелодрама, BDRip 1080p] Dub (iTunes) + Original (Eng) + Sub (Eng) 90ytr90
34 | 4

0 | 417

11

09.01.2020 00:46

Зарубежное кино [HDDVDRip / BDRip / WEB-DL / HDTV 1080/720р] Исцеляющая / Гармония / Harmony (Кори Пирсон / Corey Pearson) [2018 г., фэнтези, триллер, мелодрама, BDRip 720p] Dub (iTunes) + Original (Eng) + Sub (Eng) 90ytr90
34 | 3

0 | 648

9

09.01.2020 18:49


Яндекс.Метрика powered by Sphinx


В Н И М А Н И Е
Сайт не распространяет и не хранит электронные версии произведений, а лишь бесплатно и без коммерческой выгоды (не требуя взамен платы,
SMS и т.д.) предоставляет доступ к создаваемому пользователями каталогу ссылок на торрент-файлы, которые содержат только списки хеш-сумм.
Убедительная просьба с жалобами обращаться напрямую к пользователю, разместившему торрент файл.

Вверх