Loading...
Error

(Trance) Nu NRG - Freefall (2004) [FLAC (Tracks+.Cue), Lossless]

Статистика раздачи
Размер:  551 MB   |    Зарегистрирован:  2 года 8 месяцев   |    Скачан:  3 раза

Полного источника не было: 1 год 10 месяцев

Сидов:  0  |  0 KB/s  ]   Личеров:  0  |  0 KB/s  ]

* - сиды/пиры с внешних источников

   
 
Автор Сообщение

Бишеп Пол:Муж

20-Янв-2020 14:59

Nu NRG - Freefall

Жанр: Trance
Год выпуска: 2004
Носитель: CD
Производитель диска: Vandit Records - Vandit 041
Аудиокодек: FLAC
Тип рипа: Tracks+.CUE
Битрейт аудио: lossless
Продолжительность: 01:17:26


Треклист:
01. Nu NRG - Eclisse (05:03)
02. Nu NRG vs. Rob Aker - Visual Sonar (08:11)
03. Nu NRG - Supersonik Way (06:08)
04. Nu NRG - Bonsai (06:17)
05. Nu NRG - Free Fall (07:36)
06. Nu NRG - Connective (06:46)
07. Nu NRG - Butterfly (04:53)
08. Nu NRG vs. Gate 4 - Astralis (07:44)
09. Nu NRG - Tommotor (07:13)
10. Nu NRG - The Shadow (06:24)
11. Nu NRG - Aloa P (06:53)
12. Nu NRG - Dreamland (04:18)

Exact Audio Copy V0.99 prebeta 5 from 4. May 2009 

EAC extraction logfile from 8. December 2009, 12:44

Nu NRG / Freefall

Used drive : MATSHITADVD-RAM UJ-846S Adapter: 0 ID: 0

Read mode : Secure
Utilize accurate stream : Yes
Defeat audio cache : Yes
Make use of C2 pointers : No

Read offset correction : 102
Overread into Lead-In and Lead-Out : No
Fill up missing offset samples with silence : Yes
Delete leading and trailing silent blocks : No
Null samples used in CRC calculations : Yes
Used interface : Native Win32 interface for Win NT & 2000
Gap handling : Appended to previous track

Used output format : User Defined Encoder
Selected bitrate : 128 kBit/s
Quality : High
Add ID3 tag : No
Command line compressor : C:\Program Files\Exact Audio Copy\Flac\flac.exe
Additional command line options : -8 -V -T "ARTIST=%a" -T "TITLE=%t" -T "ALBUM=%g" -T "DATE=%y" -T "TRACKNUMBER=%n" -T "GENRE=%m" -T "COMMENT=ripped by DrStandBy" %s

TOC of the extracted CD

Track | Start | Length | Start sector | End sector
---------------------------------------------------------
1 | 0:00.00 | 5:03.25 | 0 | 22749
2 | 5:03.25 | 8:11.17 | 22750 | 59591
3 | 13:14.42 | 6:08.35 | 59592 | 87226
4 | 19:23.02 | 6:17.15 | 87227 | 115516
5 | 25:40.17 | 7:35.58 | 115517 | 149699
6 | 33:16.00 | 6:46.20 | 149700 | 180169
7 | 40:02.20 | 4:53.15 | 180170 | 202159
8 | 44:55.35 | 7:44.35 | 202160 | 236994
9 | 52:39.70 | 7:13.25 | 236995 | 269494
10 | 59:53.20 | 6:24.00 | 269495 | 298294
11 | 66:17.20 | 6:52.72 | 298295 | 329266
12 | 73:10.17 | 4:17.58 | 329267 | 348599

Track 1

Filename C:\My Music\Giuseppe Ottaviani\2004 - Nu NRG - Freefall\01. Eclisse.wav

Pre-gap length 0:00:02.00

Peak level 98.0 %
Track quality 100.0 %
Test CRC E8E425B0
Copy CRC E8E425B0
Accurately ripped (confidence 2) [55CB3E2C]
Copy OK

Track 2

Filename C:\My Music\Giuseppe Ottaviani\2004 - Nu NRG - Freefall\02. Visual Sonar (vs. Rob Aker).wav

Peak level 98.0 %
Track quality 100.0 %
Test CRC 5080B4BF
Copy CRC 5080B4BF
Accurately ripped (confidence 2) [9941F3AA]
Copy OK

Track 3

Filename C:\My Music\Giuseppe Ottaviani\2004 - Nu NRG - Freefall\03. Supersonik Way.wav

Peak level 98.0 %
Track quality 100.0 %
Test CRC 93E3CF95
Copy CRC 93E3CF95
Accurately ripped (confidence 2) [AC6871D1]
Copy OK

Track 4

Filename C:\My Music\Giuseppe Ottaviani\2004 - Nu NRG - Freefall\04. Bonsai.wav

Peak level 98.0 %
Track quality 99.9 %
Test CRC 1B0FB843
Copy CRC 1B0FB843
Accurately ripped (confidence 2) [3313634D]
Copy OK

Track 5

Filename C:\My Music\Giuseppe Ottaviani\2004 - Nu NRG - Freefall\05. Free Fall.wav

Peak level 98.0 %
Track quality 100.0 %
Test CRC 9D0AD73F
Copy CRC 9D0AD73F
Accurately ripped (confidence 2) [A13B535E]
Copy OK

Track 6

Filename C:\My Music\Giuseppe Ottaviani\2004 - Nu NRG - Freefall\06. Connective.wav

Peak level 98.0 %
Track quality 100.0 %
Test CRC A1FC7DA7
Copy CRC A1FC7DA7
Accurately ripped (confidence 2) [1FA7705E]
Copy OK

Track 7

Filename C:\My Music\Giuseppe Ottaviani\2004 - Nu NRG - Freefall\07. Butterfly.wav

Peak level 98.0 %
Track quality 99.9 %
Test CRC 5B278AED
Copy CRC 5B278AED
Accurately ripped (confidence 2) [B6972B5C]
Copy OK

Track 8

Filename C:\My Music\Giuseppe Ottaviani\2004 - Nu NRG - Freefall\08. Astralis (vs. Gate 4).wav

Peak level 98.0 %
Track quality 100.0 %
Test CRC 7F2651A5
Copy CRC 7F2651A5
Accurately ripped (confidence 2) [B7C7CC1B]
Copy OK

Track 9

Filename C:\My Music\Giuseppe Ottaviani\2004 - Nu NRG - Freefall\09. Tommoter.wav

Peak level 97.9 %
Track quality 99.9 %
Test CRC 1DD7C104
Copy CRC 1DD7C104
Accurately ripped (confidence 2) [C10AFDA3]
Copy OK

Track 10

Filename C:\My Music\Giuseppe Ottaviani\2004 - Nu NRG - Freefall\10. The Shadow.wav

Peak level 98.0 %
Track quality 100.0 %
Test CRC 1F30CD44
Copy CRC 1F30CD44
Accurately ripped (confidence 2) [DF9D40AF]
Copy OK

Track 11

Filename C:\My Music\Giuseppe Ottaviani\2004 - Nu NRG - Freefall\11. Aloa P.wav

Peak level 92.3 %
Track quality 100.0 %
Test CRC D0ED77D0
Copy CRC D0ED77D0
Accurately ripped (confidence 2) [1DB8D9A6]
Copy OK

Track 12

Filename C:\My Music\Giuseppe Ottaviani\2004 - Nu NRG - Freefall\12. Dreamland.wav

Peak level 98.0 %
Track quality 100.0 %
Test CRC 86E7C94F
Copy CRC 86E7C94F
Accurately ripped (confidence 2) [3EDA8EDD]
Copy OK

All tracks accurately ripped

No errors occurred

End of status report
REM GENRE Trance 
REM DATE 2004
REM DISCID C512280C
REM COMMENT "ExactAudioCopy v0.99pb5"
PERFORMER "Nu NRG"
TITLE "Freefall"
FILE "01. Eclisse.wav" WAVE
TRACK 01 AUDIO
TITLE "Eclisse"
PERFORMER "Nu NRG"
INDEX 01 00:00:00
FILE "02. Visual Sonar (vs. Rob Aker).wav" WAVE
TRACK 02 AUDIO
TITLE "Visual Sonar (vs. Rob Aker)"
PERFORMER "Nu NRG"
INDEX 01 00:00:00
FILE "03. Supersonik Way.wav" WAVE
TRACK 03 AUDIO
TITLE "Supersonik Way"
PERFORMER "Nu NRG"
INDEX 01 00:00:00
FILE "04. Bonsai.wav" WAVE
TRACK 04 AUDIO
TITLE "Bonsai"
PERFORMER "Nu NRG"
INDEX 01 00:00:00
FILE "05. Free Fall.wav" WAVE
TRACK 05 AUDIO
TITLE "Free Fall"
PERFORMER "Nu NRG"
INDEX 01 00:00:00
FILE "06. Connective.wav" WAVE
TRACK 06 AUDIO
TITLE "Connective"
PERFORMER "Nu NRG"
INDEX 01 00:00:00
FILE "07. Butterfly.wav" WAVE
TRACK 07 AUDIO
TITLE "Butterfly"
PERFORMER "Nu NRG"
INDEX 01 00:00:00
FILE "08. Astralis (vs. Gate 4).wav" WAVE
TRACK 08 AUDIO
TITLE "Astralis (vs. Gate 4)"
PERFORMER "Nu NRG"
INDEX 01 00:00:00
FILE "09. Tommoter.wav" WAVE
TRACK 09 AUDIO
TITLE "Tommoter"
PERFORMER "Nu NRG"
INDEX 01 00:00:00
FILE "10. The Shadow.wav" WAVE
TRACK 10 AUDIO
TITLE "The Shadow"
PERFORMER "Nu NRG"
INDEX 01 00:00:00
FILE "11. Aloa P.wav" WAVE
TRACK 11 AUDIO
TITLE "Aloa P"
PERFORMER "Nu NRG"
INDEX 01 00:00:00
FILE "12. Dreamland.wav" WAVE
TRACK 12 AUDIO
TITLE "Dreamland"
PERFORMER "Nu NRG"
INDEX 01 00:00:00

Этот торрент недоступен для скачивания без регистрации, однако доступен по публичной magnet-ссылке (источники с публичных трекеров). Перед использованием ссылки прочтите, пожалуйста Пользовательское соглашение, а также как можно дольше оставайтесь на раздаче! Для того, чтобы скачать сам торрент-файл (который видит больше источников), а также для того, чтобы поблагодарить релизера, вам необходимо зарегистрироваться. Если регистрироваться лень - вы можете также попробовать скачать релиз по нашим партнерским ссылкам ниже. Кроме того, зарегистрированным пользователям не показывается всплывающая реклама при скачивании.

[underver.se].t157642.torrent
Трекер: Зарегистрирован   [ 20.01.2020 14:59 ]  
Статус: проверено (by Бишеп at 20.01.2020 14:59)
Поблагодарили: пока никто не поблагодарил...
Тип торрента: публичный - доступные источники с открытых трекеров: 
Размер: 551 MB (занимает 0.12 DVDR, для записи нужно 1 болванка DVDR/RW)
 
 

Яндекс.Метрика powered by Sphinx


В Н И М А Н И Е
Сайт не распространяет и не хранит электронные версии произведений, а лишь бесплатно и без коммерческой выгоды (не требуя взамен платы,
SMS и т.д.) предоставляет доступ к создаваемому пользователями каталогу ссылок на торрент-файлы, которые содержат только списки хеш-сумм.
Убедительная просьба с жалобами обращаться напрямую к пользователю, разместившему торрент файл.

Вверх