Loading...
Error

(Trance, Dream House, Downtempo) Robert Miles - Dreamland (The Winter Edition) (1996) [FLAC (Tracks+.Cue), Lossless]

Статистика раздачи
Размер:  521 MB   |    Зарегистрирован:  2 года 8 месяцев   |    Скачан:  9 раз

Полного источника не было: 2 месяца 17 дней

Сидов:  0  |  0 KB/s  ]   Личеров:  0  |  0 KB/s  ]

* - сиды/пиры с внешних источников

   
 
Автор Сообщение

Бишеп Пол:Муж

20-Янв-2020 15:06

Robert Miles - Dreamland (The Winter Edition)

Жанр: Trance, Dream House, Downtempo
Год выпуска: 1996
Носитель: CD
Производитель диска: Urban - 533 791-2
Аудиокодек: FLAC
Тип рипа: Tracks+.CUE
Битрейт аудио: lossless
Продолжительность: 01:16:34


Треклист:
01. One & One (Radio Edit) (3:52)
02. Children (Dream version)(6:59)
03. Fable (Message Version) (6:25)
04. Fantasya (5:41)
05. Landscape (6:04)
06. In My Dreams (6:09)
07. Princess Of Light (6:19)
08. For Us (7:40)
09. In The Dawn (7:42)
10. Children (Original) (6:42)
11. Red Zone (6:30)
12. One & One (Club Mix) (6:31)

Exact Audio Copy V0.99 prebeta 4 from 23. January 2008 

EAC extraction logfile from 19. October 2008, 14:57

Robert Miles / Dreamland (Winter Edition) (533 791-2)

Used drive : PLEXTOR DVDR PX-760A Adapter: 1 ID: 0

Read mode : Secure
Utilize accurate stream : Yes
Defeat audio cache : Yes
Make use of C2 pointers : No

Read offset correction : 30
Overread into Lead-In and Lead-Out : No
Fill up missing offset samples with silence : Yes
Delete leading and trailing silent blocks : No
Null samples used in CRC calculations : Yes
Used interface : Native Win32 interface for Win NT & 2000
Gap handling : Appended to previous track

Used output format : User Defined Encoder
Selected bitrate : 320 kBit/s
Quality : High
Add ID3 tag : No
Command line compressor : C:\Program Files\FLAC\flac.exe
Additional command line options : -8 -V -T "ARTIST=%a" -T "TITLE=%t" -T "ALBUM=%g" -T "DATE=%y" -T "TRACKNUMBER=%n" -T "GENRE=%m" -T "COMMENT=EAC FLAC -8" %s

TOC of the extracted CD

Track | Start | Length | Start sector | End sector
---------------------------------------------------------
1 | 0:00.00 | 3:53.37 | 0 | 17511
2 | 3:53.37 | 6:50.63 | 17512 | 48324
3 | 10:44.25 | 6:25.45 | 48325 | 77244
4 | 17:09.70 | 5:40.52 | 77245 | 102796
5 | 22:50.47 | 6:04.40 | 102797 | 130136
6 | 28:55.12 | 6:11.73 | 130137 | 158034
7 | 35:07.10 | 6:17.72 | 158035 | 186381
8 | 41:25.07 | 7:39.40 | 186382 | 220846
9 | 49:04.47 | 7:42.70 | 220847 | 255566
10 | 56:47.42 | 6:39.65 | 255567 | 285556
11 | 63:27.32 | 6:36.53 | 285557 | 315309
12 | 70:04.10 | 6:30.07 | 315310 | 344566

Track 1

Filename C:\APE\Robert Miles\1996 - Dreamland (Winter Edition) (533 791-2)\01. One & One (Radio Edit).wav

Pre-gap length 0:00:02.00

Peak level 99.9 %
Track quality 100.0 %
Test CRC 718D7551
Copy CRC 718D7551
Accurately ripped (confidence 6) [4433D65F]
Copy OK

Track 2

Filename C:\APE\Robert Miles\1996 - Dreamland (Winter Edition) (533 791-2)\02. Children.wav

Peak level 99.1 %
Track quality 100.0 %
Test CRC 3980471D
Copy CRC 3980471D
Accurately ripped (confidence 6) [F74734C3]
Copy OK

Track 3

Filename C:\APE\Robert Miles\1996 - Dreamland (Winter Edition) (533 791-2)\03. Fable (Message Version).wav

Peak level 99.1 %
Track quality 100.0 %
Test CRC 66722568
Copy CRC 66722568
Accurately ripped (confidence 6) [BF51065A]
Copy OK

Track 4

Filename C:\APE\Robert Miles\1996 - Dreamland (Winter Edition) (533 791-2)\04. Fantasya.wav

Peak level 99.1 %
Track quality 99.9 %
Test CRC C44B160F
Copy CRC C44B160F
Accurately ripped (confidence 6) [BE0B99F7]
Copy OK

Track 5

Filename C:\APE\Robert Miles\1996 - Dreamland (Winter Edition) (533 791-2)\05. Landscape.wav

Peak level 99.1 %
Track quality 100.0 %
Test CRC 8DD54AD2
Copy CRC 8DD54AD2
Accurately ripped (confidence 6) [04D74948]
Copy OK

Track 6

Filename C:\APE\Robert Miles\1996 - Dreamland (Winter Edition) (533 791-2)\06. In My Dreams.wav

Peak level 99.0 %
Track quality 100.0 %
Test CRC 68A1589F
Copy CRC 68A1589F
Accurately ripped (confidence 6) [8AF46CE0]
Copy OK

Track 7

Filename C:\APE\Robert Miles\1996 - Dreamland (Winter Edition) (533 791-2)\07. Princess Of Light.wav

Peak level 99.0 %
Track quality 100.0 %
Test CRC 9772886A
Copy CRC 9772886A
Accurately ripped (confidence 6) [73D32B91]
Copy OK

Track 8

Filename C:\APE\Robert Miles\1996 - Dreamland (Winter Edition) (533 791-2)\08. For Us.wav

Peak level 99.9 %
Track quality 100.0 %
Test CRC 0ABBF21E
Copy CRC 0ABBF21E
Accurately ripped (confidence 6) [14AE0947]
Copy OK

Track 9

Filename C:\APE\Robert Miles\1996 - Dreamland (Winter Edition) (533 791-2)\09. In The Dawn.wav

Peak level 99.1 %
Track quality 100.0 %
Test CRC D45E6666
Copy CRC D45E6666
Accurately ripped (confidence 6) [5A0C5A95]
Copy OK

Track 10

Filename C:\APE\Robert Miles\1996 - Dreamland (Winter Edition) (533 791-2)\10. Children.wav

Peak level 99.1 %
Track quality 100.0 %
Test CRC 5B31AF14
Copy CRC 5B31AF14
Accurately ripped (confidence 6) [33C86281]
Copy OK

Track 11

Filename C:\APE\Robert Miles\1996 - Dreamland (Winter Edition) (533 791-2)\11. Red Zone.wav

Peak level 98.1 %
Track quality 100.0 %
Test CRC F707DC85
Copy CRC F707DC85
Accurately ripped (confidence 6) [D354F6A6]
Copy OK

Track 12

Filename C:\APE\Robert Miles\1996 - Dreamland (Winter Edition) (533 791-2)\12. One & One (Club Mix).wav

Peak level 100.0 %
Track quality 100.0 %
Test CRC 3592509B
Copy CRC 3592509B
Accurately ripped (confidence 6) [6BCDFAC3]
Copy OK

All tracks accurately ripped

No errors occurred

End of status report
REM GENRE Electronic 
REM DATE 1996
REM DISCID A611F20C
REM COMMENT "ExactAudioCopy v0.99pb4"
PERFORMER "Robert Miles"
TITLE "Dreamland (Winter Edition) (533 791-2)"
FILE "01. One & One (Radio Edit).wav" WAVE
TRACK 01 AUDIO
TITLE "One & One (Radio Edit)"
PERFORMER "Robert Miles"
INDEX 01 00:00:00
FILE "02. Children.wav" WAVE
TRACK 02 AUDIO
TITLE "Children"
PERFORMER "Robert Miles"
INDEX 01 00:00:00
FILE "03. Fable (Message Version).wav" WAVE
TRACK 03 AUDIO
TITLE "Fable (Message Version)"
PERFORMER "Robert Miles"
INDEX 01 00:00:00
FILE "04. Fantasya.wav" WAVE
TRACK 04 AUDIO
TITLE "Fantasya"
PERFORMER "Robert Miles"
INDEX 01 00:00:00
FILE "05. Landscape.wav" WAVE
TRACK 05 AUDIO
TITLE "Landscape"
PERFORMER "Robert Miles"
INDEX 01 00:00:00
FILE "06. In My Dreams.wav" WAVE
TRACK 06 AUDIO
TITLE "In My Dreams"
PERFORMER "Robert Miles"
INDEX 01 00:00:00
FILE "07. Princess Of Light.wav" WAVE
TRACK 07 AUDIO
TITLE "Princess Of Light"
PERFORMER "Robert Miles"
INDEX 01 00:00:00
FILE "08. For Us.wav" WAVE
TRACK 08 AUDIO
TITLE "For Us"
PERFORMER "Robert Miles"
INDEX 01 00:00:00
FILE "09. In The Dawn.wav" WAVE
TRACK 09 AUDIO
TITLE "In The Dawn"
PERFORMER "Robert Miles"
INDEX 01 00:00:00
FILE "10. Children.wav" WAVE
TRACK 10 AUDIO
TITLE "Children"
PERFORMER "Robert Miles"
INDEX 01 00:00:00
FILE "11. Red Zone.wav" WAVE
TRACK 11 AUDIO
TITLE "Red Zone"
PERFORMER "Robert Miles"
INDEX 01 00:00:00
FILE "12. One & One (Club Mix).wav" WAVE
TRACK 12 AUDIO
TITLE "One & One (Club Mix)"
PERFORMER "Robert Miles"
INDEX 01 00:00:00

Этот торрент недоступен для скачивания без регистрации, однако доступен по публичной magnet-ссылке (источники с публичных трекеров). Перед использованием ссылки прочтите, пожалуйста Пользовательское соглашение, а также как можно дольше оставайтесь на раздаче! Для того, чтобы скачать сам торрент-файл (который видит больше источников), а также для того, чтобы поблагодарить релизера, вам необходимо зарегистрироваться. Если регистрироваться лень - вы можете также попробовать скачать релиз по нашим партнерским ссылкам ниже. Кроме того, зарегистрированным пользователям не показывается всплывающая реклама при скачивании.

[underver.se].t157643.torrent
Трекер: Зарегистрирован   [ 20.01.2020 15:06 ]  
Статус: проверено (by Бишеп at 20.01.2020 15:07)
Поблагодарили: пока никто не поблагодарил...
Тип торрента: публичный - доступные источники с открытых трекеров: 
Размер: 521 MB (занимает 0.12 DVDR, для записи нужно 1 болванка DVDR/RW)
 
 

Яндекс.Метрика powered by Sphinx


В Н И М А Н И Е
Сайт не распространяет и не хранит электронные версии произведений, а лишь бесплатно и без коммерческой выгоды (не требуя взамен платы,
SMS и т.д.) предоставляет доступ к создаваемому пользователями каталогу ссылок на торрент-файлы, которые содержат только списки хеш-сумм.
Убедительная просьба с жалобами обращаться напрямую к пользователю, разместившему торрент файл.

Вверх