Loading...
Error

(Trance, Vocal, Euro House) Ian Van Dahl - Ace (2002) [FLAC (Tracks+.Cue), Lossless]

Статистика раздачи
Размер:  541 MB   |    Зарегистрирован:  2 года 8 месяцев   |    Скачан:  5 раз

Полного источника не было: 2 дня 3 часа

Сидов:  0  |  0 KB/s  ]   Личеров:  0  |  0 KB/s  ]

* - сиды/пиры с внешних источников

   
 
Автор Сообщение

Бишеп Пол:Муж

21-Янв-2020 16:39

Ian Van Dahl - Ace

Жанр: Trance, Vocal, Euro House
Год выпуска: 2002
Носитель: CD
Производитель диска: NuLife - 74321 93481 2
Аудиокодек: FLAC
Тип рипа: Tracks+.CUE
Битрейт аудио: lossless
Продолжительность: 01:10:33


Треклист:
01. Intro (02:10)
02. Reason (03:21)
03. After All (05:56)
04. Satisfy Me (06:07)
05. Will I (02:40)
06. Nights On Java (07:36)
07. Try (08:13)
08. Lonely (04:16)
09. Be Mine (03:04)
10. Castles In The Sky (03:46)
11. Nothing Left To Say (05:17)
12. Tears - Impactmp3 (03:20)
13. {'intelu:d} (00:49)
14. Secret Love (03:12)
15. Tomorrow (06:03)
16. Run (04:38)

Exact Audio Copy V0.99 prebeta 5 from 4. May 2009 

EAC extraction logfile from 4. January 2011, 12:11

Ian van Dahl / A.C.E.

Used drive : HL-DT-STDVD-ROM GDRH20N Adapter: 4 ID: 0

Read mode : Secure
Utilize accurate stream : Yes
Defeat audio cache : Yes
Make use of C2 pointers : No

Read offset correction : 102
Overread into Lead-In and Lead-Out : No
Fill up missing offset samples with silence : Yes
Delete leading and trailing silent blocks : No
Null samples used in CRC calculations : Yes
Used interface : Native Win32 interface for Win NT & 2000
Gap handling : Appended to previous track

Used output format : User Defined Encoder
Selected bitrate : 768 kBit/s
Quality : High
Add ID3 tag : No
Command line compressor : C:\Music\EAC099pb4\FLAC\FLAC.EXE
Additional command line options : -8 -V -T "ARTIST=%a" -T "TITLE=%t" -T "ALBUM=%g" -T "DATE=%y" -T "TRACKNUMBER=%n" -T "GENRE=%m" -T "COMMENT=EAC FLAC -8" %s

TOC of the extracted CD

Track | Start | Length | Start sector | End sector
---------------------------------------------------------
1 | 0:00.00 | 2:10.05 | 0 | 9754
2 | 2:10.05 | 3:21.70 | 9755 | 24899
3 | 5:32.00 | 5:56.15 | 24900 | 51614
4 | 11:28.15 | 6:07.55 | 51615 | 79194
5 | 17:35.70 | 2:40.22 | 79195 | 91216
6 | 20:16.17 | 7:36.53 | 91217 | 125469
7 | 27:52.70 | 8:13.05 | 125470 | 162449
8 | 36:06.00 | 4:16.35 | 162450 | 181684
9 | 40:22.35 | 3:04.15 | 181685 | 195499
10 | 43:26.50 | 3:46.17 | 195500 | 212466
11 | 47:12.67 | 5:17.55 | 212467 | 236296
12 | 52:30.47 | 3:20.08 | 236297 | 251304
13 | 55:50.55 | 0:49.62 | 251305 | 255041
14 | 56:40.42 | 3:12.03 | 255042 | 269444
15 | 59:52.45 | 6:03.22 | 269445 | 296691
16 | 65:55.67 | 4:38.05 | 296692 | 317546

Track 1

Filename I:\Music\WhatCD4\Ian van Dahl 2002 A.C.E\01. Ian van Dahl – Intro.wav

Pre-gap length 0:00:02.00

Peak level 86.1 %
Track quality 100.0 %
Test CRC 6D855B36
Copy CRC 6D855B36
Accurately ripped (confidence 6) [97D8794C]
Copy OK

Track 2

Filename I:\Music\WhatCD4\Ian van Dahl 2002 A.C.E\02. Ian van Dahl – Reason.wav

Peak level 98.8 %
Track quality 100.0 %
Test CRC 01252604
Copy CRC 01252604
Accurately ripped (confidence 6) [F671FA4B]
Copy OK

Track 3

Filename I:\Music\WhatCD4\Ian van Dahl 2002 A.C.E\03. Ian van Dahl – After All.wav

Pre-gap length 0:00:02.05

Peak level 98.8 %
Track quality 100.0 %
Test CRC 38C22A02
Copy CRC 38C22A02
Accurately ripped (confidence 6) [D1C58FDA]
Copy OK

Track 4

Filename I:\Music\WhatCD4\Ian van Dahl 2002 A.C.E\04. Ian van Dahl – Satisfy Me.wav

Pre-gap length 0:00:02.05

Peak level 91.2 %
Track quality 100.0 %
Test CRC C0AF9975
Copy CRC C0AF9975
Accurately ripped (confidence 6) [54AE270B]
Copy OK

Track 5

Filename I:\Music\WhatCD4\Ian van Dahl 2002 A.C.E\05. Ian van Dahl – Will I.wav

Pre-gap length 0:00:02.08

Peak level 98.8 %
Track quality 100.0 %
Test CRC 97474A14
Copy CRC 97474A14
Accurately ripped (confidence 6) [0018CF1A]
Copy OK

Track 6

Filename I:\Music\WhatCD4\Ian van Dahl 2002 A.C.E\06. Ian van Dahl – Nights On Java.wav

Pre-gap length 0:00:02.05

Peak level 98.8 %
Track quality 100.0 %
Test CRC 59E0CD23
Copy CRC 59E0CD23
Accurately ripped (confidence 6) [DC44CBE7]
Copy OK

Track 7

Filename I:\Music\WhatCD4\Ian van Dahl 2002 A.C.E\07. Ian van Dahl – Try.wav

Pre-gap length 0:00:01.45

Peak level 98.8 %
Track quality 100.0 %
Test CRC FC1430BD
Copy CRC FC1430BD
Accurately ripped (confidence 6) [50DA1A23]
Copy OK

Track 8

Filename I:\Music\WhatCD4\Ian van Dahl 2002 A.C.E\08. Ian van Dahl – Lonely.wav

Pre-gap length 0:00:02.05

Peak level 98.8 %
Track quality 100.0 %
Test CRC 22467442
Copy CRC 22467442
Accurately ripped (confidence 6) [A3D3592D]
Copy OK

Track 9

Filename I:\Music\WhatCD4\Ian van Dahl 2002 A.C.E\09. Ian van Dahl – Be Mine.wav

Pre-gap length 0:00:02.05

Peak level 98.8 %
Track quality 100.0 %
Test CRC 2BDC72A2
Copy CRC 2BDC72A2
Accurately ripped (confidence 6) [3B164FD8]
Copy OK

Track 10

Filename I:\Music\WhatCD4\Ian van Dahl 2002 A.C.E\10. Ian van Dahl – Castles In The Sky.wav

Pre-gap length 0:00:02.08

Peak level 98.8 %
Track quality 100.0 %
Test CRC 86192646
Copy CRC 86192646
Accurately ripped (confidence 6) [FC2B19EE]
Copy OK

Track 11

Filename I:\Music\WhatCD4\Ian van Dahl 2002 A.C.E\11. Ian van Dahl – Nothing Left To Say.wav

Pre-gap length 0:00:02.07

Peak level 98.8 %
Track quality 100.0 %
Test CRC 9FAC39AA
Copy CRC 9FAC39AA
Accurately ripped (confidence 6) [EAEA2BDD]
Copy OK

Track 12

Filename I:\Music\WhatCD4\Ian van Dahl 2002 A.C.E\12. Ian van Dahl – Tears - Impactmp3.wav

Pre-gap length 0:00:02.07

Peak level 98.8 %
Track quality 100.0 %
Test CRC 22F1DC55
Copy CRC 22F1DC55
Accurately ripped (confidence 6) [2880015E]
Copy OK

Track 13

Filename I:\Music\WhatCD4\Ian van Dahl 2002 A.C.E\13. Ian van Dahl – Interlude.wav

Pre-gap length 0:00:03.05

Peak level 98.8 %
Track quality 100.0 %
Test CRC 3FF08D64
Copy CRC 3FF08D64
Accurately ripped (confidence 6) [5A2D4175]
Copy OK

Track 14

Filename I:\Music\WhatCD4\Ian van Dahl 2002 A.C.E\14. Ian van Dahl – Secret Love.wav

Peak level 98.8 %
Track quality 100.0 %
Test CRC 74CD8DB5
Copy CRC 74CD8DB5
Accurately ripped (confidence 6) [F8722C1D]
Copy OK

Track 15

Filename I:\Music\WhatCD4\Ian van Dahl 2002 A.C.E\15. Ian van Dahl – Tomorrow.wav

Pre-gap length 0:00:02.10

Peak level 98.8 %
Track quality 100.0 %
Test CRC E4C82C2A
Copy CRC E4C82C2A
Accurately ripped (confidence 7) [239AC3B6]
Copy OK

Track 16

Filename I:\Music\WhatCD4\Ian van Dahl 2002 A.C.E\16. Ian van Dahl – Run.wav

Pre-gap length 0:00:01.50

Peak level 98.8 %
Track quality 100.0 %
Test CRC 678F2760
Copy CRC 678F2760
Accurately ripped (confidence 7) [2741FC4D]
Copy OK

All tracks accurately ripped

No errors occurred

End of status report
REM GENRE House 
REM DATE 2002
REM DISCID D8108910
REM COMMENT "ExactAudioCopy v0.99pb5"
PERFORMER "Ian van Dahl"
TITLE "A.C.E."
FILE "01. Ian van Dahl – Intro.wav" WAVE
TRACK 01 AUDIO
TITLE "Intro"
PERFORMER "Ian van Dahl"
INDEX 01 00:00:00
FILE "02. Ian van Dahl – Reason.wav" WAVE
TRACK 02 AUDIO
TITLE "Reason"
PERFORMER "Ian van Dahl"
INDEX 01 00:00:00
TRACK 03 AUDIO
TITLE "After All"
PERFORMER "Ian van Dahl"
INDEX 00 03:19:65
FILE "03. Ian van Dahl – After All.wav" WAVE
INDEX 01 00:00:00
TRACK 04 AUDIO
TITLE "Satisfy Me"
PERFORMER "Ian van Dahl"
INDEX 00 05:54:10
FILE "04. Ian van Dahl – Satisfy Me.wav" WAVE
INDEX 01 00:00:00
TRACK 05 AUDIO
TITLE "Will I"
PERFORMER "Ian van Dahl"
INDEX 00 06:05:47
FILE "05. Ian van Dahl – Will I.wav" WAVE
INDEX 01 00:00:00
TRACK 06 AUDIO
TITLE "Nights On Java"
PERFORMER "Ian van Dahl"
INDEX 00 02:38:17
FILE "06. Ian van Dahl – Nights On Java.wav" WAVE
INDEX 01 00:00:00
TRACK 07 AUDIO
TITLE "Try"
PERFORMER "Ian van Dahl"
INDEX 00 07:35:08
FILE "07. Ian van Dahl – Try.wav" WAVE
INDEX 01 00:00:00
TRACK 08 AUDIO
TITLE "Lonely"
PERFORMER "Ian van Dahl"
INDEX 00 08:11:00
FILE "08. Ian van Dahl – Lonely.wav" WAVE
INDEX 01 00:00:00
TRACK 09 AUDIO
TITLE "Be Mine"
PERFORMER "Ian van Dahl"
INDEX 00 04:14:30
FILE "09. Ian van Dahl – Be Mine.wav" WAVE
INDEX 01 00:00:00
TRACK 10 AUDIO
TITLE "Castles In The Sky"
PERFORMER "Ian van Dahl"
INDEX 00 03:02:07
FILE "10. Ian van Dahl – Castles In The Sky.wav" WAVE
INDEX 01 00:00:00
TRACK 11 AUDIO
TITLE "Nothing Left To Say"
PERFORMER "Ian van Dahl"
INDEX 00 03:44:10
FILE "11. Ian van Dahl – Nothing Left To Say.wav" WAVE
INDEX 01 00:00:00
TRACK 12 AUDIO
TITLE "Tears - Impactmp3"
PERFORMER "Ian van Dahl"
INDEX 00 05:15:48
FILE "12. Ian van Dahl – Tears - Impactmp3.wav" WAVE
INDEX 01 00:00:00
TRACK 13 AUDIO
TITLE "Interlude"
PERFORMER "Ian van Dahl"
INDEX 00 03:17:03
FILE "13. Ian van Dahl – Interlude.wav" WAVE
INDEX 01 00:00:00
FILE "14. Ian van Dahl – Secret Love.wav" WAVE
TRACK 14 AUDIO
TITLE "Secret Love"
PERFORMER "Ian van Dahl"
INDEX 01 00:00:00
TRACK 15 AUDIO
TITLE "Tomorrow"
PERFORMER "Ian van Dahl"
INDEX 00 03:09:68
FILE "15. Ian van Dahl – Tomorrow.wav" WAVE
INDEX 01 00:00:00
TRACK 16 AUDIO
TITLE "Run"
PERFORMER "Ian van Dahl"
INDEX 00 06:01:47
FILE "16. Ian van Dahl – Run.wav" WAVE
INDEX 01 00:00:00

Этот торрент недоступен для скачивания без регистрации, однако доступен по публичной magnet-ссылке (источники с публичных трекеров). Перед использованием ссылки прочтите, пожалуйста Пользовательское соглашение, а также как можно дольше оставайтесь на раздаче! Для того, чтобы скачать сам торрент-файл (который видит больше источников), а также для того, чтобы поблагодарить релизера, вам необходимо зарегистрироваться. Если регистрироваться лень - вы можете также попробовать скачать релиз по нашим партнерским ссылкам ниже. Кроме того, зарегистрированным пользователям не показывается всплывающая реклама при скачивании.

[underver.se].t157792.torrent
Трекер: Зарегистрирован   [ 21.01.2020 16:39 ]  
Статус: проверено (by Бишеп at 21.01.2020 16:39)
Поблагодарили: пока никто не поблагодарил...
Тип торрента: публичный - доступные источники с открытых трекеров: 
Размер: 541 MB (занимает 0.12 DVDR, для записи нужно 1 болванка DVDR/RW)
 
 

Яндекс.Метрика powered by Sphinx


В Н И М А Н И Е
Сайт не распространяет и не хранит электронные версии произведений, а лишь бесплатно и без коммерческой выгоды (не требуя взамен платы,
SMS и т.д.) предоставляет доступ к создаваемому пользователями каталогу ссылок на торрент-файлы, которые содержат только списки хеш-сумм.
Убедительная просьба с жалобами обращаться напрямую к пользователю, разместившему торрент файл.

Вверх