Loading...
Error

(Deep House) Lane 8 - Little By Little (2018) [FLAC (Tracks+.Cue), Lossless]

Статистика раздачи
Размер:  315 MB   |    Зарегистрирован:  2 года 8 месяцев   |    Скачан:  8 раз
Сидов:  1  |  0 KB/s  ]   Личеров:  0  |  0 KB/s  ]

* - сиды/пиры с внешних источников

   
 
Автор Сообщение

Бишеп Пол:Муж

01-Фев-2020 07:35

Lane 8 - Little By Little

Жанр: Deep House
Год выпуска: 2018
Носитель: CD
Производитель диска: This Never Happened - TNHCD001
Аудиокодек: FLAC
Тип рипа: Tracks+.CUE
Битрейт аудио: lossless
Продолжительность: 00:54:57


Треклист:
01. Daya (06:18)
02. No Captain (Feat. POLICA) (05:16)
03. Atlas (05:50)
04. Clarify (Feat. Fractures) (04:00)
05. Little By Little (05:33)
06. Stir Me Up (04:56)
07. Skin & Bones (05:18)
08. Hold On (Feat. Fractures) (05:11)
09. Coming Back To You (Feat. J.F. July) (05:17)
10. No End In Sight / Outro (07:19)

Exact Audio Copy V1.3 from 2. September 2016 

EAC extraction logfile from 10. February 2018, 22:36

Lane 8 / Little By Little

Used drive : hp DVD-RAM SW820 Adapter: 1 ID: 0

Read mode : Secure
Utilize accurate stream : Yes
Defeat audio cache : Yes
Make use of C2 pointers : No

Read offset correction : 6
Overread into Lead-In and Lead-Out : No
Fill up missing offset samples with silence : Yes
Delete leading and trailing silent blocks : No
Null samples used in CRC calculations : Yes
Used interface : Native Win32 interface for Win NT & 2000
Gap handling : Appended to previous track

Used output format : User Defined Encoder
Selected bitrate : 768 kBit/s
Quality : High
Add ID3 tag : No
Command line compressor : C:\Program Files (x86)\Exact Audio Copy\FLAC\FLAC.EXE
Additional command line options : -8 -e -p -V -T "ARTIST=%artist%" -T "TITLE=%title%" -T "ALBUM=%albumtitle%" -T "DATE=%year%" -T "TRACKNUMBER=%tracknr%" -T "GENRE=%genre%" -T "PERFORMER=%albuminterpret%" -T "COMPOSER=%composer%" %haslyrics%--tag-from-file=LYRICS="%lyricsfile%"%haslyrics% -T "ALBUMARTIST=%albumartist%" -T "DISCNUMBER=%cdnumber%" -T "TOTALDISCS=%totalcds%" -T "TOTALTRACKS=%numtracks%" -T "COMMENT=%comment%" %source% -o %dest%

TOC of the extracted CD

Track | Start | Length | Start sector | End sector
---------------------------------------------------------
1 | 0:00.00 | 6:20.41 | 0 | 28540
2 | 6:20.41 | 5:18.00 | 28541 | 52390
3 | 11:38.41 | 5:52.13 | 52391 | 78803
4 | 17:30.54 | 4:02.01 | 78804 | 96954
5 | 21:32.55 | 5:35.17 | 96955 | 122096
6 | 27:07.72 | 4:58.13 | 122097 | 144459
7 | 32:06.10 | 5:20.52 | 144460 | 168511
8 | 37:26.62 | 5:13.46 | 168512 | 192032
9 | 42:40.33 | 5:19.32 | 192033 | 215989
10 | 47:59.65 | 7:19.27 | 215990 | 248941

Track 1

Filename C:\Rips v3\Lane 8 - Little By Little {2018} [TNHCD001] (FLAC)\01 - Daya.wav

Pre-gap length 0:00:02.00

Peak level 100.0 %
Extraction speed 1.1 X
Track quality 100.0 %
Test CRC 611B099B
Copy CRC 611B099B
Track not present in AccurateRip database
Copy OK

Track 2

Filename C:\Rips v3\Lane 8 - Little By Little {2018} [TNHCD001] (FLAC)\02 - No Captain (ft. Poliça).wav

Pre-gap length 0:00:02.00

Peak level 100.0 %
Extraction speed 1.3 X
Track quality 100.0 %
Test CRC 8ACEB741
Copy CRC 8ACEB741
Track not present in AccurateRip database
Copy OK

Track 3

Filename C:\Rips v3\Lane 8 - Little By Little {2018} [TNHCD001] (FLAC)\03 - Atlas.wav

Pre-gap length 0:00:02.00

Peak level 100.0 %
Extraction speed 1.5 X
Track quality 100.0 %
Test CRC F918013D
Copy CRC F918013D
Track not present in AccurateRip database
Copy OK

Track 4

Filename C:\Rips v3\Lane 8 - Little By Little {2018} [TNHCD001] (FLAC)\04 - Clarify (ft. Fractures).wav

Pre-gap length 0:00:02.00

Peak level 100.0 %
Extraction speed 1.3 X
Track quality 99.9 %
Test CRC 4F5EF207
Copy CRC 4F5EF207
Track not present in AccurateRip database
Copy OK

Track 5

Filename C:\Rips v3\Lane 8 - Little By Little {2018} [TNHCD001] (FLAC)\05 - Little By Little.wav

Pre-gap length 0:00:02.00

Peak level 100.0 %
Extraction speed 1.7 X
Track quality 100.0 %
Test CRC C0E233CD
Copy CRC C0E233CD
Track not present in AccurateRip database
Copy OK

Track 6

Filename C:\Rips v3\Lane 8 - Little By Little {2018} [TNHCD001] (FLAC)\06 - Stir Me Up.wav

Pre-gap length 0:00:02.00

Peak level 100.0 %
Extraction speed 1.8 X
Track quality 100.0 %
Test CRC F4B12D72
Copy CRC F4B12D72
Track not present in AccurateRip database
Copy OK

Track 7

Filename C:\Rips v3\Lane 8 - Little By Little {2018} [TNHCD001] (FLAC)\07 - Skin & Bones (ft. Patrick Baker).wav

Pre-gap length 0:00:02.00

Peak level 100.0 %
Extraction speed 1.7 X
Track quality 99.9 %
Test CRC 4E4931F2
Copy CRC 4E4931F2
Track not present in AccurateRip database
Copy OK

Track 8

Filename C:\Rips v3\Lane 8 - Little By Little {2018} [TNHCD001] (FLAC)\08 - Hold On (ft. Fractures).wav

Pre-gap length 0:00:02.00

Peak level 100.0 %
Extraction speed 2.0 X
Track quality 100.0 %
Test CRC 8FE2DDC7
Copy CRC 8FE2DDC7
Track not present in AccurateRip database
Copy OK

Track 9

Filename C:\Rips v3\Lane 8 - Little By Little {2018} [TNHCD001] (FLAC)\09 - Coming Back to You (ft. J.F. July).wav

Pre-gap length 0:00:02.00

Peak level 100.0 %
Extraction speed 2.1 X
Track quality 100.0 %
Test CRC 18747BB4
Copy CRC 18747BB4
Track not present in AccurateRip database
Copy OK

Track 10

Filename C:\Rips v3\Lane 8 - Little By Little {2018} [TNHCD001] (FLAC)\10 - No End in Sight,Outro.wav

Pre-gap length 0:00:02.00

Peak level 96.6 %
Extraction speed 2.3 X
Track quality 100.0 %
Test CRC 68F85A40
Copy CRC 68F85A40
Track not present in AccurateRip database
Copy OK

None of the tracks are present in the AccurateRip database

No errors occurred

End of status report

---- CUETools DB Plugin V2.1.6

[CTDB TOCID: 4Kvt7KKeACWWr5gePzy6qJ030rA-] found
Submit result: 4Kvt7KKeACWWr5gePzy6qJ030rA- has been confirmed
Track | CTDB Status
1 | (1/1) Accurately ripped
2 | (1/1) Accurately ripped
3 | (1/1) Accurately ripped
4 | (1/1) Accurately ripped
5 | (1/1) Accurately ripped
6 | (1/1) Accurately ripped
7 | (1/1) Accurately ripped
8 | (1/1) Accurately ripped
9 | (1/1) Accurately ripped
10 | (1/1) Accurately ripped

==== Log checksum 9A5E1E663820FAFF1A91E567BDF2495E111552983DF019EB4ED132A424714FAF ====
REM DATE 2018 
REM DISCID 860CF70A
REM COMMENT "ExactAudioCopy v1.3"
PERFORMER "Lane 8"
TITLE "Little By Little"
REM COMPOSER ""
FILE "01 - Daya.wav" WAVE
TRACK 01 AUDIO
TITLE "Daya"
PERFORMER "Lane 8"
REM COMPOSER ""
ISRC FRX201711787
INDEX 01 00:00:00
TRACK 02 AUDIO
TITLE "No Captain (ft. Poliзa)"
PERFORMER "Lane 8"
REM COMPOSER ""
ISRC FRX201711788
INDEX 00 06:18:41
FILE "02 - No Captain (ft. Poliзa).wav" WAVE
INDEX 01 00:00:00
TRACK 03 AUDIO
TITLE "Atlas"
PERFORMER "Lane 8"
REM COMPOSER ""
ISRC FRX201711789
INDEX 00 05:16:00
FILE "03 - Atlas.wav" WAVE
INDEX 01 00:00:00
TRACK 04 AUDIO
TITLE "Clarify (ft. Fractures)"
PERFORMER "Lane 8"
REM COMPOSER ""
ISRC FRX201711790
INDEX 00 05:50:13
FILE "04 - Clarify (ft. Fractures).wav" WAVE
INDEX 01 00:00:00
TRACK 05 AUDIO
TITLE "Little By Little"
PERFORMER "Lane 8"
REM COMPOSER ""
ISRC FRX201711791
INDEX 00 04:00:01
FILE "05 - Little By Little.wav" WAVE
INDEX 01 00:00:00
TRACK 06 AUDIO
TITLE "Stir Me Up"
PERFORMER "Lane 8"
REM COMPOSER ""
ISRC FRX201711792
INDEX 00 05:33:17
FILE "06 - Stir Me Up.wav" WAVE
INDEX 01 00:00:00
TRACK 07 AUDIO
TITLE "Skin & Bones (ft. Patrick Baker)"
PERFORMER "Lane 8"
REM COMPOSER ""
ISRC FRX201711793
INDEX 00 04:56:13
FILE "07 - Skin & Bones (ft. Patrick Baker).wav" WAVE
INDEX 01 00:00:00
TRACK 08 AUDIO
TITLE "Hold On (ft. Fractures)"
PERFORMER "Lane 8"
REM COMPOSER ""
ISRC FRX201711794
INDEX 00 05:18:52
FILE "08 - Hold On (ft. Fractures).wav" WAVE
INDEX 01 00:00:00
TRACK 09 AUDIO
TITLE "Coming Back to You (ft. J.F. July)"
PERFORMER "Lane 8"
REM COMPOSER ""
ISRC FRX201711795
INDEX 00 05:11:46
FILE "09 - Coming Back to You (ft. J.F. July).wav" WAVE
INDEX 01 00:00:00
TRACK 10 AUDIO
TITLE "No End in Sight/Outro"
PERFORMER "Lane 8"
REM COMPOSER ""
ISRC FRX201711796
INDEX 00 05:17:32
FILE "10 - No End in Sight,Outro.wav" WAVE
INDEX 01 00:00:00

Этот торрент недоступен для скачивания без регистрации, однако доступен по публичной magnet-ссылке (источники с публичных трекеров). Перед использованием ссылки прочтите, пожалуйста Пользовательское соглашение, а также как можно дольше оставайтесь на раздаче! Для того, чтобы скачать сам торрент-файл (который видит больше источников), а также для того, чтобы поблагодарить релизера, вам необходимо зарегистрироваться. Если регистрироваться лень - вы можете также попробовать скачать релиз по нашим партнерским ссылкам ниже. Кроме того, зарегистрированным пользователям не показывается всплывающая реклама при скачивании.

[underver.se].t158823.torrent
Трекер: Зарегистрирован   [ 01.02.2020 07:35 ]  
Статус: проверено (by Бишеп at 01.02.2020 07:35)
Поблагодарили: пока никто не поблагодарил...
Тип торрента: публичный - доступные источники с открытых трекеров: 
Размер: 315 MB (занимает 0.07 DVDR, для записи нужно 1 болванка DVDR/RW)
 
 

Яндекс.Метрика powered by Sphinx


В Н И М А Н И Е
Сайт не распространяет и не хранит электронные версии произведений, а лишь бесплатно и без коммерческой выгоды (не требуя взамен платы,
SMS и т.д.) предоставляет доступ к создаваемому пользователями каталогу ссылок на торрент-файлы, которые содержат только списки хеш-сумм.
Убедительная просьба с жалобами обращаться напрямую к пользователю, разместившему торрент файл.

Вверх