Loading...
Error

(Deep House, Chill House) Dj Koze - Knock Knock (2018) [FLAC (Tracks+.Cue), Lossless]

Статистика раздачи
Размер:  474 MB   |    Зарегистрирован:  2 года 8 месяцев   |    Скачан:  9 раз
Сидов:  1  |  0 KB/s  ]   Личеров:  0  |  0 KB/s  ]

* - сиды/пиры с внешних источников

   
 
Автор Сообщение

Бишеп Пол:Муж

01-Фев-2020 10:37

Dj Koze - Knock Knock

Жанр: Deep House, Chill House
Год выпуска: 2018
Носитель: CD
Производитель диска: Pampa Records - PampaCD013
Аудиокодек: FLAC
Тип рипа: Tracks+.CUE
Битрейт аудио: lossless
Продолжительность: 01:18:38


Треклист:
01. Club Der Ewigkeiten (04:10)
02. Bonfire (05:25)
03. Moving In A Liquid (Feat. Eddie Fummler) (04:41)
04. Colors Of Autumn (Feat. Speech) (04:24)
05. Music On My Teeth (Feat. José González) (04:16)
06. This Is My Rock (Feat. Sophia Kennedy) (04:00)
07. Illumination (Feat. Róisín Murphy) (04:31)
08. Pick Up (Album) (06:38)
09. Planet Hase (Feat. Mano Le Tough) (05:11)
10. Scratch That (Feat. Róisín Murphy) (04:36)
11. Muddy Funster (Feat. Kurt Wagner) (05:24)
12. Baby (How Much I LFO You) (04:32)
13. Jesus (05:14)
14. Lord Knows (04:08)
15. Seeing Aliens (Album) (04:52)
16. Drone Me Up, Flashy (Feat. Sophia Kennedy) (06:35)

Exact Audio Copy V1.3 from 2. September 2016 

EAC extraction logfile from 3. May 2018, 4:10

DJ Koze / knock knock

Used drive : HL-DT-STDVDRW GS23N Adapter: 1 ID: 0

Read mode : Secure
Utilize accurate stream : Yes
Defeat audio cache : Yes
Make use of C2 pointers : No

Read offset correction : 667
Overread into Lead-In and Lead-Out : No
Fill up missing offset samples with silence : Yes
Delete leading and trailing silent blocks : No
Null samples used in CRC calculations : Yes
Used interface : Native Win32 interface for Win NT & 2000
Gap handling : Appended to previous track

Used output format : User Defined Encoder
Selected bitrate : 1024 kBit/s
Quality : High
Add ID3 tag : No
Command line compressor : C:\Program Files (x86)\Exact Audio Copy\Flac\flac.exe
Additional command line options : -8 -e -p -V -T "ARTIST=%artist%" -T "TITLE=%title%" -T "ALBUM=%albumtitle%" -T "DATE=%year%" -T "TRACKNUMBER=%tracknr%" -T "GENRE=%genre%" -T "PERFORMER=%albuminterpret%" -T "COMPOSER=%composer%" %haslyrics%--tag-from-file=LYRICS="%lyricsfile%"%haslyrics% -T "ALBUMARTIST=%albumartist%" -T "DISCNUMBER=%cdnumber%" -T "TOTALDISCS=%totalcds%" -T "TOTALTRACKS=%numtracks%" -T "COMMENT=%comment%" %source% -o %dest%

TOC of the extracted CD

Track | Start | Length | Start sector | End sector
---------------------------------------------------------
1 | 0:00.00 | 4:09.59 | 0 | 18733
2 | 4:09.59 | 5:25.13 | 18734 | 43121
3 | 9:34.72 | 4:40.62 | 43122 | 64183
4 | 14:15.59 | 4:24.23 | 64184 | 84006
5 | 18:40.07 | 4:16.18 | 84007 | 103224
6 | 22:56.25 | 3:59.63 | 103225 | 121212
7 | 26:56.13 | 4:30.68 | 121213 | 141530
8 | 31:27.06 | 6:38.14 | 141531 | 171394
9 | 38:05.20 | 5:11.36 | 171395 | 194755
10 | 43:16.56 | 4:36.22 | 194756 | 215477
11 | 47:53.03 | 5:24.11 | 215478 | 239788
12 | 53:17.14 | 4:31.44 | 239789 | 260157
13 | 57:48.58 | 5:14.35 | 260158 | 283742
14 | 63:03.18 | 4:07.36 | 283743 | 302303
15 | 67:10.54 | 4:52.23 | 302304 | 324226
16 | 72:03.02 | 6:34.49 | 324227 | 353825

Track 1

Filename C:\DJ Koze - knock knock (2018) [FLAC] {PampaCD013X}\01 - Club der Ewigkeiten.wav

Pre-gap length 0:00:02.00

Peak level 98.8 %
Extraction speed 1.2 X
Track quality 99.9 %
Test CRC 408BCA21
Copy CRC 408BCA21
Track not present in AccurateRip database
Copy OK

Track 2

Filename C:\DJ Koze - knock knock (2018) [FLAC] {PampaCD013X}\02 - Bonfire.wav

Peak level 100.0 %
Extraction speed 1.7 X
Track quality 100.0 %
Test CRC 7882CF19
Copy CRC 7882CF19
Track not present in AccurateRip database
Copy OK

Track 3

Filename C:\DJ Koze - knock knock (2018) [FLAC] {PampaCD013X}\03 - Moving in a liquid (feat Eddie Fummler).wav

Peak level 100.0 %
Extraction speed 1.5 X
Track quality 99.9 %
Test CRC A3639E93
Copy CRC A3639E93
Track not present in AccurateRip database
Copy OK

Track 4

Filename C:\DJ Koze - knock knock (2018) [FLAC] {PampaCD013X}\04 - Colors of autumn (feat. Speech).wav

Peak level 100.0 %
Extraction speed 1.9 X
Track quality 100.0 %
Test CRC 1F86E4D1
Copy CRC 1F86E4D1
Track not present in AccurateRip database
Copy OK

Track 5

Filename C:\DJ Koze - knock knock (2018) [FLAC] {PampaCD013X}\05 - Music on my teeth (feat José González).wav

Peak level 93.1 %
Extraction speed 2.0 X
Track quality 100.0 %
Test CRC 95AFB0E8
Copy CRC 95AFB0E8
Track not present in AccurateRip database
Copy OK

Track 6

Filename C:\DJ Koze - knock knock (2018) [FLAC] {PampaCD013X}\06 - This is my rock (feat. Sophia Kennedy).wav

Peak level 100.0 %
Extraction speed 2.1 X
Track quality 100.0 %
Test CRC 5E5C6965
Copy CRC 5E5C6965
Track not present in AccurateRip database
Copy OK

Track 7

Filename C:\DJ Koze - knock knock (2018) [FLAC] {PampaCD013X}\07 - Illumination (feat. Róisín Murphy).wav

Peak level 98.8 %
Extraction speed 1.9 X
Track quality 99.9 %
Test CRC D80E623A
Copy CRC D80E623A
Track not present in AccurateRip database
Copy OK

Track 8

Filename C:\DJ Koze - knock knock (2018) [FLAC] {PampaCD013X}\08 - Pick up (album).wav

Peak level 98.8 %
Extraction speed 2.5 X
Track quality 100.0 %
Test CRC 956EF7ED
Copy CRC 956EF7ED
Track not present in AccurateRip database
Copy OK

Track 9

Filename C:\DJ Koze - knock knock (2018) [FLAC] {PampaCD013X}\09 - Planet Hase (feat. Mano le tough).wav

Peak level 100.0 %
Extraction speed 2.5 X
Track quality 100.0 %
Test CRC AC6C21C2
Copy CRC AC6C21C2
Track not present in AccurateRip database
Copy OK

Track 10

Filename C:\DJ Koze - knock knock (2018) [FLAC] {PampaCD013X}\10 - Scratch that (feat. Róisín Murphy).wav

Peak level 100.0 %
Extraction speed 2.6 X
Track quality 100.0 %
Test CRC E5FB8AF3
Copy CRC E5FB8AF3
Track not present in AccurateRip database
Copy OK

Track 11

Filename C:\DJ Koze - knock knock (2018) [FLAC] {PampaCD013X}\11 - Muddy Funster (feat. Kurt Wagner).wav

Peak level 98.8 %
Extraction speed 2.8 X
Track quality 100.0 %
Test CRC D5854CC0
Copy CRC D5854CC0
Track not present in AccurateRip database
Copy OK

Track 12

Filename C:\DJ Koze - knock knock (2018) [FLAC] {PampaCD013X}\12 - Baby (how much i LFO you).wav

Peak level 100.0 %
Extraction speed 2.4 X
Track quality 99.9 %
Test CRC 1B5549F0
Copy CRC 1B5549F0
Track not present in AccurateRip database
Copy OK

Track 13

Filename C:\DJ Koze - knock knock (2018) [FLAC] {PampaCD013X}\13 - Jesus.wav

Peak level 100.0 %
Extraction speed 2.9 X
Track quality 100.0 %
Test CRC 2CC2AB35
Copy CRC 2CC2AB35
Track not present in AccurateRip database
Copy OK

Track 14

Filename C:\DJ Koze - knock knock (2018) [FLAC] {PampaCD013X}\14 - Lord knows.wav

Peak level 99.4 %
Extraction speed 2.9 X
Track quality 100.0 %
Test CRC 02FDB55B
Copy CRC 02FDB55B
Track not present in AccurateRip database
Copy OK

Track 15

Filename C:\DJ Koze - knock knock (2018) [FLAC] {PampaCD013X}\15 - Seeing Aliens (album).wav

Peak level 100.0 %
Extraction speed 3.1 X
Track quality 100.0 %
Test CRC C13F3E16
Copy CRC C13F3E16
Track not present in AccurateRip database
Copy OK

Track 16

Filename C:\DJ Koze - knock knock (2018) [FLAC] {PampaCD013X}\16 - Drone me up, Flashy (feat. Sophia Kennedy).wav

Peak level 100.0 %
Extraction speed 3.2 X
Track quality 100.0 %
Test CRC 5A04E4EE
Copy CRC 5A04E4EE
Track not present in AccurateRip database
Copy OK

None of the tracks are present in the AccurateRip database

No errors occurred

End of status report

---- CUETools DB Plugin V2.1.6

[CTDB TOCID: ZvNWPfk8A4MUT0KLf4UuesKkRdA-] disk not present in database
Submit result: ZvNWPfk8A4MUT0KLf4UuesKkRdA- has been uploaded

==== Log checksum 1F0C31102DE24FD19CF4522074264FE8D4C7EED94F64411C592BC28F99B2A0A2 ====
REM GENRE Electronic 
REM DATE 2018
REM DISCID 07126D10
REM COMMENT "ExactAudioCopy v1.3"
PERFORMER "DJ Koze"
TITLE "knock knock"
REM COMPOSER ""
FILE "01 - Club der Ewigkeiten.wav" WAVE
TRACK 01 AUDIO
TITLE "Club der Ewigkeiten"
PERFORMER "DJ Koze"
REM COMPOSER ""
ISRC DEMM11800001
INDEX 01 00:00:00
FILE "02 - Bonfire.wav" WAVE
TRACK 02 AUDIO
TITLE "Bonfire"
PERFORMER "DJ Koze"
REM COMPOSER ""
ISRC DEMM11800002
INDEX 01 00:00:00
FILE "03 - Moving in a liquid (feat Eddie Fummler).wav" WAVE
TRACK 03 AUDIO
TITLE "Moving in a liquid (feat Eddie Fummler)"
PERFORMER "DJ Koze"
REM COMPOSER ""
ISRC DEMM11800003
INDEX 01 00:00:00
FILE "04 - Colors of autumn (feat. Speech).wav" WAVE
TRACK 04 AUDIO
TITLE "Colors of autumn (feat. Speech)"
PERFORMER "DJ Koze"
REM COMPOSER ""
ISRC DEMM11800004
INDEX 01 00:00:00
FILE "05 - Music on my teeth (feat Josй Gonzбlez).wav" WAVE
TRACK 05 AUDIO
TITLE "Music on my teeth (feat Josй Gonzбlez)"
PERFORMER "DJ Koze"
REM COMPOSER ""
ISRC DEMM11800005
INDEX 01 00:00:00
FILE "06 - This is my rock (feat. Sophia Kennedy).wav" WAVE
TRACK 06 AUDIO
TITLE "This is my rock (feat. Sophia Kennedy)"
PERFORMER "DJ Koze"
REM COMPOSER ""
ISRC DEMM11800006
INDEX 01 00:00:00
FILE "07 - Illumination (feat. Rуisнn Murphy).wav" WAVE
TRACK 07 AUDIO
TITLE "Illumination (feat. Rуisнn Murphy)"
PERFORMER "DJ Koze"
REM COMPOSER ""
ISRC DEMM11800007
INDEX 01 00:00:00
FILE "08 - Pick up (album).wav" WAVE
TRACK 08 AUDIO
TITLE "Pick up (album)"
PERFORMER "DJ Koze"
REM COMPOSER ""
ISRC DEMM11800008
INDEX 01 00:00:00
FILE "09 - Planet Hase (feat. Mano le tough).wav" WAVE
TRACK 09 AUDIO
TITLE "Planet Hase (feat. Mano le tough)"
PERFORMER "DJ Koze"
REM COMPOSER ""
ISRC DEMM11800009
INDEX 01 00:00:00
FILE "10 - Scratch that (feat. Rуisнn Murphy).wav" WAVE
TRACK 10 AUDIO
TITLE "Scratch that (feat. Rуisнn Murphy)"
PERFORMER "DJ Koze"
REM COMPOSER ""
ISRC DEMM11800010
INDEX 01 00:00:00
FILE "11 - Muddy Funster (feat. Kurt Wagner).wav" WAVE
TRACK 11 AUDIO
TITLE "Muddy Funster (feat. Kurt Wagner)"
PERFORMER "DJ Koze"
REM COMPOSER ""
ISRC DEMM11800011
INDEX 01 00:00:00
FILE "12 - Baby (how much i LFO you).wav" WAVE
TRACK 12 AUDIO
TITLE "Baby (how much i LFO you)"
PERFORMER "DJ Koze"
REM COMPOSER ""
ISRC DEMM11800012
INDEX 01 00:00:00
FILE "13 - Jesus.wav" WAVE
TRACK 13 AUDIO
TITLE "Jesus"
PERFORMER "DJ Koze"
REM COMPOSER ""
ISRC DEMM11800013
INDEX 01 00:00:00
FILE "14 - Lord knows.wav" WAVE
TRACK 14 AUDIO
TITLE "Lord knows"
PERFORMER "DJ Koze"
REM COMPOSER ""
ISRC DEMM11800014
INDEX 01 00:00:00
FILE "15 - Seeing Aliens (album).wav" WAVE
TRACK 15 AUDIO
TITLE "Seeing Aliens (album)"
PERFORMER "DJ Koze"
REM COMPOSER ""
ISRC DEMM11800015
INDEX 01 00:00:00
FILE "16 - Drone me up, Flashy (feat. Sophia Kennedy).wav" WAVE
TRACK 16 AUDIO
TITLE "Drone me up, Flashy (feat. Sophia Kennedy)"
PERFORMER "DJ Koze"
REM COMPOSER ""
ISRC DEMM11800016
INDEX 01 00:00:00

Этот торрент недоступен для скачивания без регистрации, однако доступен по публичной magnet-ссылке (источники с публичных трекеров). Перед использованием ссылки прочтите, пожалуйста Пользовательское соглашение, а также как можно дольше оставайтесь на раздаче! Для того, чтобы скачать сам торрент-файл (который видит больше источников), а также для того, чтобы поблагодарить релизера, вам необходимо зарегистрироваться. Если регистрироваться лень - вы можете также попробовать скачать релиз по нашим партнерским ссылкам ниже. Кроме того, зарегистрированным пользователям не показывается всплывающая реклама при скачивании.

[underver.se].t158833.torrent
Трекер: Зарегистрирован   [ 01.02.2020 10:37 ]  
Статус: проверено (by Бишеп at 01.02.2020 10:38)
Поблагодарили: пока никто не поблагодарил...
Тип торрента: публичный - доступные источники с открытых трекеров: 
Размер: 474 MB (занимает 0.11 DVDR, для записи нужно 1 болванка DVDR/RW)
 
 

Яндекс.Метрика powered by Sphinx


В Н И М А Н И Е
Сайт не распространяет и не хранит электронные версии произведений, а лишь бесплатно и без коммерческой выгоды (не требуя взамен платы,
SMS и т.д.) предоставляет доступ к создаваемому пользователями каталогу ссылок на торрент-файлы, которые содержат только списки хеш-сумм.
Убедительная просьба с жалобами обращаться напрямую к пользователю, разместившему торрент файл.

Вверх