Loading...
Error

Гуге - забытое царство Тибета / Guge: The lost kingdom of Tibet (Патрик Флеминг) [2006 г., документальный, путешествия, история, BDRip-AVC] Dub + Original (Eng)

Статистика раздачи
Размер:  908 MB   |    Зарегистрирован:  2 года 7 месяцев   |    Скачан:  1 раз
Сидов:  1  |  0 KB/s  ]   Личеров:  0  |  0 KB/s  ]

* - сиды/пиры с внешних источников

   
 
Автор Сообщение

ARI71 Пол:Муж

26-Фев-2020 14:44

Гуге - забытое царство Тибета / Guge: The lost kingdom of Tibet


Год выпуска: 2006
Жанр: документальный, путешествия, история
Страна: США For France 5, For Off the Fence B.V., Discovery Networks Asia, Bang Productions Singapore Ltd
Режиссер: Патрик Флеминг
Сюжет фильма:
Гуге - средневековое государство в Тибете, о могуществе и богатстве которого сложены легенды. Сохранились древние фрески в горных пещерах и руины высеченного в скале города. Это все, что осталось от некогда могущественной цивилизации Азии. По сохранившимся остаткам дворцовых сооружений можно судить о том, насколько высоким был уровень цивилизации Гуге. Дворец построен на скале над обрывом, что придает ему неприступный вид. Во дворце есть разветвленный подземный ход, имеющий несколько выходов, снаружи его окружает крепостная стена. Значительная часть помещений представляет собой пещеры со сводчатыми потолками, расписанными фресками. Внутри и вне городища было обнаружено большое количество семян злаковых растений, орудий труда, оружия и украшений. В пещерах были обнаружены обезглавленные мумии.
Качество видео: BDRip-AVC

Продолжительность: 00:52:02
Формат: M4V
Видео: 1024x576 (16:9), 23,976 fps, AVC (x264) [email protected] ~2200 kbps avg, 0.15 bit/pixel
Аудио #1: русский, дублированный, 48 kHz, AAC (LC), 2 ch, ~105.00 kbps avg
Аудио #2: английский, оригинал, 48 kHz, AAC (LC), 2 ch, ~129.00 kbps avg

Код:

Общее
Полное имя : F:\Guge The lost kingdom of Tibet (SD) (pk).m4v
Формат : MPEG-4
Идентификатор кодека : M4V (isom/avc1/M4A /M4V /mp42)
Размер файла : 908 Мбайт
Продолжительность : 52 м. 2 с.
Режим общего битрейта : Переменный
Общий поток : 2439 Кбит/сек
Название фильма : Guge: The lost kingdom of Tibet
Исполнитель : Patrick Fleming
Режиссёр : Патрик Флеминг
Жанр : Documentary
Тип содержимого : Short Film
Описание : Гуге - средневековое государство в Тибете, о могуществе и богатстве которого сложены легенды. Сохранились древние фрески в горных пещерах и руины высеченного в скале города. Это все, что осталось от некогда могущественной цивилизации Азии. По сохрани
Дата записи : UTC 2006-01-01 08:00:00
Дата кодирования : UTC 2014-01-06 09:36:37
Дата пометки : UTC 2014-01-06 09:36:52
Программа кодирования : MkvToMp4 [www.mkvtomp4.ru] version: 0.224 (x64)
Название сервиса : AOL
Обложка : Yes
LongDescription : Гуге - средневековое государство в Тибете, о могуществе и богатстве которого сложены легенды. Сохранились древние фрески в горных пещерах и руины высеченного в скале города. Это все, что осталось от некогда могущественной цивилизации Азии. По сохранившимся остаткам дворцовых сооружений можно судить о том, насколько высоким был уровень цивилизации Гуге. Дворец построен на скале над обрывом, что придает ему неприступный вид. Во дворце есть разветвленный подземный ход, имеющий несколько выходов, снаружи его окружает крепостная стена. Значительная часть помещений представляет собой пещеры со сводчатыми потолками, расписанными фресками. Внутри и вне городища было обнаружено большое количество семян злаковых растений, орудий труда, оружия и украшений. В пещерах были обнаружены обезглавленные мумии.
AppleStoreAccountType : AOL
AppleStoreCountry : 0
AppleStoreCatalogID : 0
Vendor : Apple:vendor_id:2013-0
ContentRating : mpaa|Unrated|600|

Видео
Идентификатор : 1
Формат : AVC
Формат/Информация : Advanced Video Codec
Профиль формата : [email protected]
Настройки формата : CABAC / 9 Ref Frames
Параметр CABAC формата : Да
Параметр RefFrames формата : 9 кадров
Идентификатор кодека : avc1
Идентификатор кодека/Информация : Advanced Video Coding
Продолжительность : 52 м. 2 с.
Битрейт : 2200 Кбит/сек
Максимальный битрейт : 10,4 Мбит/сек
Ширина : 1024 пикселя
Высота : 576 пикселей
Соотношение сторон : 16:9
Режим частоты кадров : Постоянный
Частота кадров : 23,976 (24000/1001) кадра/сек
Цветовое пространство : YUV
Субдискретизация насыщенности : 4:2:0
Битовая глубина : 8 бит
Тип развёртки : Прогрессивная
Бит/(Пиксели*Кадры) : 0.156
Размер потока : 819 Мбайт (90%)
Библиотека кодирования : x264 core 130 r2273 b3065e6
Настройки программы : cabac=1 / ref=9 / deblock=1:0:0 / analyse=0x3:0x113 / me=umh / subme=9 / psy=1 / psy_rd=1.00:0.00 / mixed_ref=1 / me_range=32 / chroma_me=1 / trellis=1 / 8x8dct=1 / cqm=0 / deadzone=21,11 / fast_pskip=1 / chroma_qp_offset=-2 / threads=12 / lookahead_threads=1 / sliced_threads=0 / nr=0 / decimate=1 / interlaced=0 / bluray_compat=0 / constrained_intra=0 / bframes=6 / b_pyramid=2 / b_adapt=2 / b_bias=0 / direct=1 / weightb=1 / open_gop=0 / weightp=2 / keyint=240 / keyint_min=24 / scenecut=40 / intra_refresh=0 / rc_lookahead=40 / rc=2pass / mbtree=1 / bitrate=2200 / ratetol=1.0 / qcomp=0.60 / qpmin=0 / qpmax=69 / qpstep=4 / cplxblur=20.0 / qblur=0.5 / ip_ratio=1.40 / aq=1:1.00
Язык : English
Дата кодирования : UTC 2014-01-06 09:36:37
Дата пометки : UTC 2014-01-06 09:36:45
Цветовой диапазон : Limited
Основные цвета : BT.709
Характеристики трансфера : BT.709
Коэффициенты матрицы : BT.709
Codec configuration box : avcC

Аудио #1
Идентификатор : 2
Формат : AAC LC
Формат/Информация : Advanced Audio Codec Low Complexity
Идентификатор кодека : mp4a-40-2
Продолжительность : 52 м. 1 с.
Вид битрейта : Переменный
Битрейт : 105 Кбит/сек
Максимальный битрейт : 128 Кбит/сек
Каналы : 2 канала
Channel layout : L R
Частота : 48,0 КГц
Частота кадров : 46,875 кадров/сек (1024 SPF)
Метод сжатия : С потерями
Размер потока : 38,9 Мбайт (4%)
Язык : Russian
Default : Да
AlternateGroup/String : 1
Дата кодирования : UTC 2014-01-06 09:33:43
Дата пометки : UTC 2014-01-06 09:36:45

Аудио #2
Идентификатор : 3
Формат : AAC LC
Формат/Информация : Advanced Audio Codec Low Complexity
Идентификатор кодека : mp4a-40-2
Продолжительность : 52 м. 2 с.
Вид битрейта : Переменный
Битрейт : 129 Кбит/сек
Максимальный битрейт : 187 Кбит/сек
Каналы : 2 канала
Channel layout : L R
Частота : 48,0 КГц
Частота кадров : 46,875 кадров/сек (1024 SPF)
Метод сжатия : С потерями
Размер потока : 48,0 Мбайт (5%)
Язык : English
Default : Нет
AlternateGroup/String : 1
Дата кодирования : UTC 2014-01-06 09:35:35
Дата пометки : UTC 2014-01-06 09:36:45
picpicpicpicpicpic
Для увеличения картинки щелкните мышкой по превью

Этот торрент недоступен для скачивания без регистрации, однако доступен по публичной magnet-ссылке (источники с публичных трекеров). Перед использованием ссылки прочтите, пожалуйста Пользовательское соглашение, а также как можно дольше оставайтесь на раздаче! Для того, чтобы скачать сам торрент-файл (который видит больше источников), а также для того, чтобы поблагодарить релизера, вам необходимо зарегистрироваться. Если регистрироваться лень - вы можете также попробовать скачать релиз по нашим партнерским ссылкам ниже. Кроме того, зарегистрированным пользователям не показывается всплывающая реклама при скачивании.

[underver.se].t161000.torrent
Трекер: Зарегистрирован   [ 26.02.2020 14:44 ]  
Статус: проверено (by ARI71 at 26.02.2020 14:45)
Поблагодарили: пока никто не поблагодарил...
Тип торрента: публичный - доступные источники с открытых трекеров: 
Размер: 908 MB (занимает 0.2 DVDR, для записи нужно 1 болванка DVDR/RW)
 
 

Яндекс.Метрика powered by Sphinx


В Н И М А Н И Е
Сайт не распространяет и не хранит электронные версии произведений, а лишь бесплатно и без коммерческой выгоды (не требуя взамен платы,
SMS и т.д.) предоставляет доступ к создаваемому пользователями каталогу ссылок на торрент-файлы, которые содержат только списки хеш-сумм.
Убедительная просьба с жалобами обращаться напрямую к пользователю, разместившему торрент файл.

Вверх