Loading...
Error

Пушки Акимбо / Guns Akimbo (Джейсон Ли Хауден) [2019 г., боевик, комедия, WEB-DLRip] Dub (звук с TS)

Статистика раздачи
Размер:  1,37 GB   |    Зарегистрирован:  6 месяцев   |    Скачан:  12 раз

Полного источника не было: 3 месяца 12 дней

Сидов:  0  |  0 KB/s  ]   Личеров:  0  |  0 KB/s  ]

* - сиды/пиры с внешних источников

   
 
Автор Сообщение

makkol Пол:Муж

29-Фев-2020 09:52

Пушки Акимбо / Guns Akimbo


Год выпуска: 2019
Жанр: боевик, комедия
Производство: Великобритания , Германия , Новая Зеландия [Altitude Film Entertainment, Four Knights Film, Hyperion Media Group]
Режиссер: Джейсон Ли Хауден
В ролях: Дэниэл Рэдклифф, Самара Уивинг, Риз Дэрби, Нед Деннехи, Наташа Лю Бордиццо, Марк Роули, Грант Боулер, Ханако Футман, Джош Роберт Томпсон, Сет Сьостранд
Сюжет фильма:
Майлз был обычным разработчиком видеоигр, пока его не втянули в кровавый квест. Незнакомцы вломились в дом, прибили к рукам два пистолета и похитили любимую девушку. Теперь Майлзу придётся сразиться с Никс - безжалостной чемпионкой подпольных игр на выживание.

  • Мировая премьера: 9 сентября 2019
  • Российская премьера: 27 февраля 2020


Качество видео: WEB-DLRip

Продолжительность: 01:38:32
Формат: AVI
Видео: XviD, 720x304 (2.35:1), 23.976 fps, 1593 kbps
Аудио: русский, дублированный (звук с TS), AC3 2.0, 48 kHz, 384 kbps

Код:

General
Complete name               : Guns.Akimbo.2019.Dt.WEB-DLRip.14OOMB.avi
Format                      : AVI
Format/Info                 : Audio Video Interleave
File size                   : 1.37 GiB
Duration                    : 1 h 38 min
Overall bit rate            : 1 986 kb/s
Writing application         : VirtualDubMod 1.5.10.3 (build 2550/release)
Writing library             : VirtualDubMod build 2550/release

Video
ID                          : 0
Format                      : MPEG-4 Visual
Format profile              : Advanced [email protected]
Format settings             : BVOP2 / Custom Matrix
Format settings, BVOP       : 2
Format settings, QPel       : No
Format settings, GMC        : No warppoints
Format settings, Matrix     : Custom
Codec ID                    : XVID
Codec ID/Hint               : XviD
Duration                    : 1 h 38 min
Bit rate                    : 1 593 kb/s
Width                       : 720 pixels
Height                      : 304 pixels
Display aspect ratio        : 2.35:1
Frame rate                  : 23.976 (24000/1001) FPS
Color space                 : YUV
Chroma subsampling          : 4:2:0
Bit depth                   : 8 bits
Scan type                   : Progressive
Compression mode            : Lossy
Bits/(Pixel*Frame)          : 0.304
Stream size                 : 1.10 GiB (80%)
Writing library             : XviD 1.2.1 (UTC 2008-12-04)

Audio
ID                          : 1
Format                      : AC-3
Format/Info                 : Audio Coding 3
Commercial name             : Dolby Digital
Codec ID                    : 2000
Duration                    : 1 h 38 min
Bit rate mode               : Constant
Bit rate                    : 384 kb/s
Channel(s)                  : 2 channels
Channel layout              : L R
Sampling rate               : 48.0 kHz
Frame rate                  : 31.250 FPS (1536 SPF)
Compression mode            : Lossy
Stream size                 : 271 MiB (19%)
Alignment                   : Split across interleaves
Interleave, duration        : 42  ms (1.00 video frame)
Interleave, preload duratio : 500  ms
Service kind                : Complete Main

Этот торрент недоступен для скачивания без регистрации, однако доступен по публичной magnet-ссылке (источники с публичных трекеров). Перед использованием ссылки прочтите, пожалуйста Пользовательское соглашение, а также как можно дольше оставайтесь на раздаче! Для того, чтобы скачать сам торрент-файл (который видит больше источников), а также для того, чтобы поблагодарить релизера, вам необходимо зарегистрироваться. Если регистрироваться лень - вы можете также попробовать скачать релиз по нашим партнерским ссылкам ниже. Кроме того, зарегистрированным пользователям не показывается всплывающая реклама при скачивании.

[underver.se].t161304.torrent
Трекер: Зарегистрирован   [ 29.02.2020 09:52 ]  

Статус: поглощено (by makkol at 01.03.2020 15:01)
Поблагодарили: пока никто не поблагодарил...
Тип торрента: публичный - доступные источники с открытых трекеров: 
Размер: 1,37 GB (занимает 0,31 DVDR, для записи нужно 1 болванка DVDR/RW)
 
 
Похожие темы
Форум Тема Автор Торрент Отв. Посл. сооб.
T Зарубежное кино [DVDRip, Low-Res HDRip, и т.д.] Пушки Акимбо / Guns Akimbo (Джейсон Ли Хауден) [2019 г., боевик, комедия, WEB-DLRip] DVO (LakeFilms) makkol
19 | 0

0 | 447

32

29.02.2020 09:45

Зарубежное кино [DVDRip, Low-Res HDRip, и т.д.] Пушки Акимбо / Guns Akimbo (Джейсон Ли Хауден / Jason Lei Howden) [2019 г., боевик, комедия, WEB-DLRip] MVO (HDrezka Studio, без цензуры) + Sub (Rus) 90ytr90
46 | 0

0 | 338

26

04.03.2020 10:45

* Зарубежное кино [DVDRip, Low-Res HDRip, и т.д.] Пушки Акимбо / Guns Akimbo (Джейсон Ли Хауден / Jason Lei Howden) [2019 г., боевик, комедия, WEB-DLRip] Dub (iTunes) + Sub 90ytr90
1226 | 10

0 | 457

25

26.03.2020 09:51

Зарубежное кино [HDDVDRip / BDRip / WEB-DL / HDTV 1080/720р] Пушки Акимбо / Guns Akimbo (Джейсон Ли Хауден / Jason Lei Howden) [2019 г., боевик, комедия, WEB-DL 1080p] 2xMVO (HDrezka Studio, Mallorn) + DVO (LakeFilms) + Original (Eng) + Sub (Rus, Eng) 90ytr90
50 | 0

0 | 422

28

04.03.2020 10:47

% Зарубежное кино [HDDVDRip / BDRip / WEB-DL / HDTV 1080/720р] Пушки Акимбо / Guns Akimbo (Джейсон Ли Хауден / Jason Lei Howden) [2019 г., боевик, комедия, WEB-DL 1080p] AVO (Яроцкий) 90ytr90
27 | 3

0 | 269

7

11.03.2020 06:18

* Зарубежное кино [HDDVDRip / BDRip / WEB-DL / HDTV 1080/720р] Пушки Акимбо / Guns Akimbo (Джейсон Ли Хауден / Jason Lei Howden) [2019 г., боевик, комедия, WEB-DL 1080p] Dub (iTunes) + Original + Sub 90ytr90
215 | 0

0 | 503

22

26.03.2020 09:52

* Зарубежное кино [HDDVDRip / BDRip / WEB-DL / HDTV 1080/720р] Пушки Акимбо / Guns Akimbo (Джейсон Ли Хауден / Jason Lei Howden) [2019 г., боевик, комедия, WEB-DL 720p] Dub (iTunes) + Original + Sub 90ytr90
123 | 1

0 | 404

5

26.03.2020 09:53

Зарубежное кино [HDDVDRip / BDRip / WEB-DL / HDTV 1080/720р] Пушки Акимбо / Guns Akimbo (Джейсон Ли Хауден / Jason Lei Howden) [2019 г., боевик, комедия, WEB-DL 1080p] Dub (iTunes) + 2xMVO (HDrezka Studio, Mallorn). без цензуры + AVO (Яроцкий, без цензуры) +... 90ytr90
54 | 1

0 | 414

20

27.03.2020 08:08

01-Мар-2020 15:00

Топик был перенесен из форума Зарубежное кино [DVDRip, Low-Res HDRip, и т.д.] в форум Для поглощенных раздач

Причина переноса: https://mirror.underver.se/viewtopic.php?t=158915
makkol
 

Яндекс.Метрика powered by Sphinx


В Н И М А Н И Е
Сайт не распространяет и не хранит электронные версии произведений, а лишь бесплатно и без коммерческой выгоды (не требуя взамен платы,
SMS и т.д.) предоставляет доступ к создаваемому пользователями каталогу ссылок на торрент-файлы, которые содержат только списки хеш-сумм.
Убедительная просьба с жалобами обращаться напрямую к пользователю, разместившему торрент файл.

Вверх