Loading...
Error

Пушки Акимбо / Guns Akimbo (Джейсон Ли Хауден) [2019 г., боевик, комедия, WEB-DL 1080p] DVO (LakeFilms)

Статистика раздачи
Размер:  4,03 GB   |    Зарегистрирован:  6 месяцев   |    Скачан:  19 раз

Полного источника не было: 3 дня

Сидов:  0  |  0 KB/s  ]   Личеров:  0  |  0 KB/s  ]

* - сиды/пиры с внешних источников

   
 
Автор Сообщение

makkol Пол:Муж

29-Фев-2020 09:58

Пушки Акимбо / Guns Akimbo


Год выпуска: 2019
Жанр: боевик, комедия
Производство: Великобритания , Германия , Новая Зеландия [Altitude Film Entertainment, Four Knights Film, Hyperion Media Group]
Режиссер: Джейсон Ли Хауден
В ролях: Дэниэл Рэдклифф, Самара Уивинг, Риз Дэрби, Нед Деннехи, Наташа Лю Бордиццо, Марк Роули, Грант Боулер, Ханако Футман, Джош Роберт Томпсон, Сет Сьостранд
Сюжет фильма:
Майлз был обычным разработчиком видеоигр, пока его не втянули в кровавый квест. Незнакомцы вломились в дом, прибили к рукам два пистолета и похитили любимую девушку. Теперь Майлзу придётся сразиться с Никс - безжалостной чемпионкой подпольных игр на выживание.

  • Мировая премьера: 9 сентября 2019
  • Российская премьера: 27 февраля 2020


Качество видео: WEB-DL 1080p

Продолжительность: 01:38:10
Формат: MKV
Видео: MPEG-4 AVC, 1912x792 (2.40:1), 23.976 fps, 5560 kbps
Аудио: русский, любительский двухголосый закадровый (LakeFilms), AAC 2.0, 48 kHz, 317 kbps

Код:

General
Unique ID                                : 253560511603906195291421269767111072506 (0xBEC1FA6B650235589B014246E3D05AFA)
Complete name                            : Guns.Akimbo.2019.1080p.WEB-DL.LakeFilms.mkv
Format                                   : Matroska
Format version                           : Version 4 / Version 2
File size                                : 4.03 GiB
Duration                                 : 1 h 38 min
Overall bit rate                         : 5 880 kb/s
Encoded date                             : UTC 2020-02-28 23:25:10
Writing application                      : mkvmerge v40.0.0 ('Old Town Road + Pony') 64-bit
Writing library                          : libebml v1.3.9 + libmatroska v1.5.2

Video
ID                                       : 1
Format                                   : AVC
Format/Info                              : Advanced Video Codec
Format profile                           : [email protected]
Format settings                          : CABAC / 4 Ref Frames
Format settings, CABAC                   : Yes
Format settings, RefFrames               : 4 frames
Format settings, GOP                     : M=4, N=23
Codec ID                                 : V_MPEG4/ISO/AVC
Duration                                 : 1 h 38 min
Bit rate                                 : 5 560 kb/s
Width                                    : 1 912 pixels
Height                                   : 792 pixels
Display aspect ratio                     : 2.40:1
Frame rate mode                          : Constant
Frame rate                               : 23.976 (24000/1001) FPS
Color space                              : YUV
Chroma subsampling                       : 4:2:0
Bit depth                                : 8 bits
Scan type                                : Progressive
Bits/(Pixel*Frame)                       : 0.153
Stream size                              : 3.81 GiB (95%)
Language                                 : English
Default                                  : Yes
Forced                                   : No
Color range                              : Limited
Color primaries                          : BT.709
Transfer characteristics                 : BT.709
Matrix coefficients                      : BT.709

Audio
ID                                       : 2
Format                                   : AAC
Format/Info                              : Advanced Audio Codec
Format profile                           : LC
Codec ID                                 : A_AAC-2
Duration                                 : 1 h 38 min
Bit rate                                 : 317 kb/s
Channel(s)                               : 2 channels
Channel positions                        : Front: L R
Sampling rate                            : 48.0 kHz
Frame rate                               : 46.875 FPS (1024 SPF)
Compression mode                         : Lossy
Stream size                              : 223 MiB (5%)
Language                                 : English
Default                                  : Yes
Forced                                   : No

Этот торрент недоступен для скачивания без регистрации, однако доступен по публичной magnet-ссылке (источники с публичных трекеров). Перед использованием ссылки прочтите, пожалуйста Пользовательское соглашение, а также как можно дольше оставайтесь на раздаче! Для того, чтобы скачать сам торрент-файл (который видит больше источников), а также для того, чтобы поблагодарить релизера, вам необходимо зарегистрироваться. Если регистрироваться лень - вы можете также попробовать скачать релиз по нашим партнерским ссылкам ниже. Кроме того, зарегистрированным пользователям не показывается всплывающая реклама при скачивании.

[underver.se].t161305.torrent
Трекер: Зарегистрирован   [ 29.02.2020 09:58 ]  

Статус: поглощено (by 90ytr90 at 04.03.2020 11:23)
Поблагодарили: 1 человек
Тип торрента: публичный - доступные источники с открытых трекеров: 
Размер: 4,03 GB (занимает 0,92 DVDR, для записи нужно 1 болванка DVDR/RW)
 
 
Похожие темы
Форум Тема Автор Торрент Отв. Посл. сооб.
T Зарубежное кино [DVDRip, Low-Res HDRip, и т.д.] Пушки Акимбо / Guns Akimbo (Джейсон Ли Хауден) [2019 г., боевик, комедия, WEB-DLRip] DVO (LakeFilms) makkol
19 | 0

0 | 447

32

29.02.2020 09:45

Зарубежное кино [DVDRip, Low-Res HDRip, и т.д.] Пушки Акимбо / Guns Akimbo (Джейсон Ли Хауден / Jason Lei Howden) [2019 г., боевик, комедия, WEB-DLRip] MVO (HDrezka Studio, без цензуры) + Sub (Rus) 90ytr90
46 | 0

0 | 340

26

04.03.2020 10:45

* Зарубежное кино [DVDRip, Low-Res HDRip, и т.д.] Пушки Акимбо / Guns Akimbo (Джейсон Ли Хауден / Jason Lei Howden) [2019 г., боевик, комедия, WEB-DLRip] Dub (iTunes) + Sub 90ytr90
1226 | 10

0 | 457

25

26.03.2020 09:51

Зарубежное кино [HDDVDRip / BDRip / WEB-DL / HDTV 1080/720р] Пушки Акимбо / Guns Akimbo (Джейсон Ли Хауден / Jason Lei Howden) [2019 г., боевик, комедия, WEB-DL 1080p] 2xMVO (HDrezka Studio, Mallorn) + DVO (LakeFilms) + Original (Eng) + Sub (Rus, Eng) 90ytr90
50 | 0

0 | 422

28

04.03.2020 10:47

% Зарубежное кино [HDDVDRip / BDRip / WEB-DL / HDTV 1080/720р] Пушки Акимбо / Guns Akimbo (Джейсон Ли Хауден / Jason Lei Howden) [2019 г., боевик, комедия, WEB-DL 1080p] AVO (Яроцкий) 90ytr90
27 | 3

0 | 271

7

11.03.2020 06:18

* Зарубежное кино [HDDVDRip / BDRip / WEB-DL / HDTV 1080/720р] Пушки Акимбо / Guns Akimbo (Джейсон Ли Хауден / Jason Lei Howden) [2019 г., боевик, комедия, WEB-DL 1080p] Dub (iTunes) + Original + Sub 90ytr90
215 | 0

0 | 503

22

26.03.2020 09:52

* Зарубежное кино [HDDVDRip / BDRip / WEB-DL / HDTV 1080/720р] Пушки Акимбо / Guns Akimbo (Джейсон Ли Хауден / Jason Lei Howden) [2019 г., боевик, комедия, WEB-DL 720p] Dub (iTunes) + Original + Sub 90ytr90
123 | 1

0 | 406

5

26.03.2020 09:53

Зарубежное кино [HDDVDRip / BDRip / WEB-DL / HDTV 1080/720р] Пушки Акимбо / Guns Akimbo (Джейсон Ли Хауден / Jason Lei Howden) [2019 г., боевик, комедия, WEB-DL 1080p] Dub (iTunes) + 2xMVO (HDrezka Studio, Mallorn). без цензуры + AVO (Яроцкий, без цензуры) +... 90ytr90
54 | 1

0 | 416

20

27.03.2020 08:08

04-Мар-2020 11:23

Топик был перенесен из форума Зарубежное кино [HDDVDRip / BDRip / WEB-DL / HDTV 1080/720р] в форум Для поглощенных раздач

Причина переноса: https://mirror.underver.se/viewtopic.php?t=159019
90ytr90
 

Яндекс.Метрика powered by Sphinx


В Н И М А Н И Е
Сайт не распространяет и не хранит электронные версии произведений, а лишь бесплатно и без коммерческой выгоды (не требуя взамен платы,
SMS и т.д.) предоставляет доступ к создаваемому пользователями каталогу ссылок на торрент-файлы, которые содержат только списки хеш-сумм.
Убедительная просьба с жалобами обращаться напрямую к пользователю, разместившему торрент файл.

Вверх