Loading...
Error

Грандиозное ограбление / Mega Heist (2 серии из 2) / [2009 г., документальный, расследование, криминал, SATRip] VO

Статистика раздачи
Размер:  964 MB   |    Зарегистрирован:  2 года 6 месяцев   |    Скачан:  2 раза

Полного источника не было: 1 год 8 месяцев

Сидов:  0  |  0 KB/s  ]   Личеров:  0  |  0 KB/s  ]

* - сиды/пиры с внешних источников

   
 
Автор Сообщение

ARI71 Пол:Муж

07-Мар-2020 07:46

Грандиозное ограбление / Mega Heist (2 серии из 2)

Год выпуска: 2009
Производство: США, Revelator Pictures, Discovery Communications
Жанр: документальный, расследование, криминал
Участники: Родриго Арагон, Марселино Коттье, Марио Герси
Описание: Этот динамичный документальный сериал рассказывает о самых крупных ограблениях банков, ювелирных магазинов и казино. Бельгия, Буэнос-Айрес, Лас Вегас - вы увидите самые невероятные преступления. Хорошо подготовленные налёт на ювелирный магазин, выполненный неуловимой «Туринской школой», или смелые ограбления казино, совершенные в одиночку Хуаном Вигоа, превращают их авторов в настоящих героев, если, конечно, им удаётся уйти от ответственности. Сериал «Грандиозное ограбление» знакомит нас с этими полными напряжённого действия налётами и с жизнью самых известных в мире преступников.


Качество видео: SATRip

Продолжительность: 2 x ~00:44:00
Формат: AVI
Видео: XviD, 656x368, 656x416, ~1400 Kbps
Аудио: MP3, 2 ch, 128 Kbps [русский одноголосый, профессиональный]
 
Общее
Полное имя : Грандиозное ограбление\Megaheist.1х01.rus.RG.Doc.Films.avi
Формат : AVI
Формат/Информация : Audio Video Interleave
Размер файла : 482 Мбайт
Продолжительность : 43 м. 47 с.
Общий поток : 1539 Кбит/сек
Программа кодирования : VirtualDubMod 1.5.10.2 (build 2542/release)
Библиотека кодирования : VirtualDubMod build 2542/release

Видео
Идентификатор : 0
Формат : MPEG-4 Visual
Профиль формата : Advanced [email protected]
Настройки формата : BVOP2
Параметр BVOP формата : 2
Параметр QPel формата : Нет
Параметр GMC формата : Без точки перехода
Параметр матрицы формата : Default (H.263)
Режим смешивания : Сжатый битовый поток
Идентификатор кодека : XVID
Идентификатор кодека/Подсказка : XviD
Продолжительность : 43 м. 47 с.
Битрейт : 1401 Кбит/сек
Ширина : 656 пикселей
Высота : 368 пикселей
Соотношение сторон : 5:4
Соотношение сторон в оригинале : 16:9
Частота кадров : 25,000 кадров/сек
Цветовое пространство : YUV
Субдискретизация насыщенности : 4:2:0
Битовая глубина : 8 бит
Тип развёртки : Прогрессивная
Метод сжатия : С потерями
Бит/(Пиксели*Кадры) : 0.232
Размер потока : 439 Мбайт (91%)
Библиотека кодирования : XviD 1.2.1 (UTC 2008-12-04)

Аудио
Идентификатор : 1
Формат : MPEG Audio
Версия формата : Version 1
Профиль формата : Layer 3
Настройки формата : Joint stereo / MS Stereo
Идентификатор кодека : 55
Идентификатор кодека/Подсказка : MP3
Продолжительность : 43 м. 47 с.
Вид битрейта : Постоянный
Битрейт : 128 Кбит/сек
Каналы : 2 канала
Частота : 48,0 КГц
Метод сжатия : С потерями
Размер потока : 40,1 Мбайт (8%)
Выравнивание : Соединение по промежуткам
Продолжительность промежутка : 40 мс. (1,00 видеокадр)
Время предзагрузки промежутка : 504 мс.
Библиотека кодирования : LAME3.98 (alpha)

Общее
Полное имя : Грандиозное ограбление\Megaheist.1х02.rus.RG.Doc.Films.avi
Формат : AVI
Формат/Информация : Audio Video Interleave
Размер файла : 482 Мбайт
Продолжительность : 43 м. 47 с.
Общий поток : 1539 Кбит/сек
Программа кодирования : VirtualDubMod 1.5.10.2 (build 2542/release)
Библиотека кодирования : VirtualDubMod build 2542/release

Видео
Идентификатор : 0
Формат : MPEG-4 Visual
Профиль формата : Advanced [email protected]
Настройки формата : BVOP2
Параметр BVOP формата : 2
Параметр QPel формата : Нет
Параметр GMC формата : Без точки перехода
Параметр матрицы формата : Default (H.263)
Режим смешивания : Сжатый битовый поток
Идентификатор кодека : XVID
Идентификатор кодека/Подсказка : XviD
Продолжительность : 43 м. 47 с.
Битрейт : 1401 Кбит/сек
Ширина : 656 пикселей
Высота : 416 пикселей
Соотношение сторон : 5:4
Соотношение сторон в оригинале : 16:10
Частота кадров : 25,000 кадров/сек
Цветовое пространство : YUV
Субдискретизация насыщенности : 4:2:0
Битовая глубина : 8 бит
Тип развёртки : Прогрессивная
Метод сжатия : С потерями
Бит/(Пиксели*Кадры) : 0.205
Размер потока : 439 Мбайт (91%)
Библиотека кодирования : XviD 1.2.1 (UTC 2008-12-04)

Аудио
Идентификатор : 1
Формат : MPEG Audio
Версия формата : Version 1
Профиль формата : Layer 3
Настройки формата : Joint stereo / MS Stereo
Идентификатор кодека : 55
Идентификатор кодека/Подсказка : MP3
Продолжительность : 43 м. 47 с.
Вид битрейта : Постоянный
Битрейт : 128 Кбит/сек
Каналы : 2 канала
Частота : 48,0 КГц
Метод сжатия : С потерями
Размер потока : 40,1 Мбайт (8%)
Выравнивание : Соединение по промежуткам
Продолжительность промежутка : 40 мс. (1,00 видеокадр)
Время предзагрузки промежутка : 504 мс.
Библиотека кодирования : LAME3.98 (alpha)

Скриншоты: серия 1
pic pic pic pic
pic pic pic pic

Этот торрент недоступен для скачивания без регистрации, однако доступен по публичной magnet-ссылке (источники с публичных трекеров). Перед использованием ссылки прочтите, пожалуйста Пользовательское соглашение, а также как можно дольше оставайтесь на раздаче! Для того, чтобы скачать сам торрент-файл (который видит больше источников), а также для того, чтобы поблагодарить релизера, вам необходимо зарегистрироваться. Если регистрироваться лень - вы можете также попробовать скачать релиз по нашим партнерским ссылкам ниже. Кроме того, зарегистрированным пользователям не показывается всплывающая реклама при скачивании.

[underver.se].t161929.torrent
Трекер: Зарегистрирован   [ 07.03.2020 07:46 ]  
Статус: проверено (by ARI71 at 07.03.2020 07:48)
Поблагодарили: пока никто не поблагодарил...
Тип торрента: публичный - доступные источники с открытых трекеров: 
Размер: 964 MB (занимает 0.22 DVDR, для записи нужно 1 болванка DVDR/RW)
 
 

Яндекс.Метрика powered by Sphinx


В Н И М А Н И Е
Сайт не распространяет и не хранит электронные версии произведений, а лишь бесплатно и без коммерческой выгоды (не требуя взамен платы,
SMS и т.д.) предоставляет доступ к создаваемому пользователями каталогу ссылок на торрент-файлы, которые содержат только списки хеш-сумм.
Убедительная просьба с жалобами обращаться напрямую к пользователю, разместившему торрент файл.

Вверх