Loading...
Error

Гуге - забытое царство Тибета / Guge: The lost kingdom of Tibet (Патрик Флеминг) [2006 г., документальный, путешествия, история, HDRip] Dub

Статистика раздачи
Размер:  701 MB   |    Зарегистрирован:  2 года 6 месяцев   |    Скачан:  4 раза

Полного источника не было: 2 месяца 6 дней

Сидов:  0  |  0 KB/s  ]   Личеров:  0  |  0 KB/s  ]

* - сиды/пиры с внешних источников

   
 
Автор Сообщение

ARI71 Пол:Муж

16-Мар-2020 10:57

Гуге - забытое царство Тибета / Guge: The lost kingdom of Tibet


Год выпуска: 2006
Жанр: документальный, путешествия, история
Страна: США For France 5, For Off the Fence B.V., Discovery Networks Asia, Bang Productions Singapore Ltd
Режиссер: Патрик Флеминг
Сюжет фильма:
Гуге - средневековое государство в Тибете, о могуществе и богатстве которого сложены легенды. Сохранились древние фрески в горных пещерах и руины высеченного в скале города. Это все, что осталось от некогда могущественной цивилизации Азии. По сохранившимся остаткам дворцовых сооружений можно судить о том, насколько высоким был уровень цивилизации Гуге. Дворец построен на скале над обрывом, что придает ему неприступный вид. Во дворце есть разветвленный подземный ход, имеющий несколько выходов, снаружи его окружает крепостная стена. Значительная часть помещений представляет собой пещеры со сводчатыми потолками, расписанными фресками. Внутри и вне городища было обнаружено большое количество семян злаковых растений, орудий труда, оружия и украшений. В пещерах были обнаружены обезглавленные мумии.
Качество видео: HDRip

Продолжительность: 00:52:02
Формат: AVI
Видео: 704x384 (1.85:1), 25 fps, XviD MPEG-4 ~1681 kbps avg, 0.25 bit/pixel
Аудио: 48 kHz, AC3 Dolby Digital, 2/0 (L,R) ch, ~192 kbps (русский, дублированный)

Код:

Общее
Полное имя : Guge.zabitoe.carstvo.Tibeta.2006.XviD.DVDRip.(BDRip).*другой трекер*.avi
Формат : AVI
Формат/Информация : Audio Video Interleave
Размер файла : 701 Мбайт
Продолжительность : 52 м. 2 с.
Общий поток : 1883 Кбит/сек
Программа кодирования : VirtualDubMod 1.5.10.2 (build 2542/release)
Библиотека кодирования : VirtualDubMod build 2542/release

Видео
Идентификатор : 0
Формат : MPEG-4 Visual
Профиль формата : Advanced [email protected]
Настройки формата : BVOP1
Параметр BVOP формата : 1
Параметр QPel формата : Нет
Параметр GMC формата : Без точки перехода
Параметр матрицы формата : Default (MPEG)
Режим смешивания : Сжатый битовый поток
Идентификатор кодека : XVID
Идентификатор кодека/Подсказка : XviD
Продолжительность : 52 м. 2 с.
Битрейт : 1681 Кбит/сек
Ширина : 704 пикселя
Высота : 384 пикселя
Соотношение сторон : 1,85:1
Частота кадров : 25,000 кадров/сек
Цветовое пространство : YUV
Субдискретизация насыщенности : 4:2:0
Битовая глубина : 8 бит
Тип развёртки : Прогрессивная
Метод сжатия : С потерями
Бит/(Пиксели*Кадры) : 0.249
Размер потока : 626 Мбайт (89%)
Библиотека кодирования : XviD 1.2.0.dev47 (UTC 2006-11-01)

Аудио
Идентификатор : 1
Формат : AC-3
Формат/Информация : Audio Coding 3
Коммерческое название : Dolby Digital
Идентификатор кодека : 2000
Продолжительность : 52 м. 0 с.
Вид битрейта : Постоянный
Битрейт : 192 Кбит/сек
Каналы : 2 канала
Channel layout : L R
Частота : 48,0 КГц
Частота кадров : 31,250 кадров/сек (1536 SPF)
Битовая глубина : 16 бит
Метод сжатия : С потерями
Размер потока : 71,4 Мбайт (10%)
Выравнивание : Разделение по промежуткам
Продолжительность промежутка : 40 мс. (1,00 видеокадр)
Время предзагрузки промежутка : 500 мс.
ServiceKind/String : Complete Main
picpicpicpic
Для увеличения картинки щелкните мышкой по превью

Этот торрент недоступен для скачивания без регистрации, однако доступен по публичной magnet-ссылке (источники с публичных трекеров). Перед использованием ссылки прочтите, пожалуйста Пользовательское соглашение, а также как можно дольше оставайтесь на раздаче! Для того, чтобы скачать сам торрент-файл (который видит больше источников), а также для того, чтобы поблагодарить релизера, вам необходимо зарегистрироваться. Если регистрироваться лень - вы можете также попробовать скачать релиз по нашим партнерским ссылкам ниже. Кроме того, зарегистрированным пользователям не показывается всплывающая реклама при скачивании.

[underver.se].t162638.torrent
Трекер: Зарегистрирован   [ 16.03.2020 10:57 ]  
Статус: проверено (by ARI71 at 16.03.2020 10:58)
Поблагодарили: 1 человек
Тип торрента: публичный - доступные источники с открытых трекеров: 
Размер: 701 MB (занимает 0.16 DVDR, для записи нужно 1 болванка DVDR/RW)
 
 

Яндекс.Метрика powered by Sphinx


В Н И М А Н И Е
Сайт не распространяет и не хранит электронные версии произведений, а лишь бесплатно и без коммерческой выгоды (не требуя взамен платы,
SMS и т.д.) предоставляет доступ к создаваемому пользователями каталогу ссылок на торрент-файлы, которые содержат только списки хеш-сумм.
Убедительная просьба с жалобами обращаться напрямую к пользователю, разместившему торрент файл.

Вверх