Loading...
Error

WRC. Чемпионат мира по ралли. Обзоры (1-7 этапов из 7) [2020 г., автоспорт, ралли, HDTVRip, 720p]

Статистика раздачи
Размер:  13,71 GB   |    Зарегистрирован:  4 месяца 24 дня   |    Скачан:  0 раз
Сидов:  1  |  0 KB/s  ]   Личеров:  0  |  0 KB/s  ]

* - сиды/пиры с внешних источников

   
 
Автор Сообщение

nastya2009 Пол:Жен

28-Мар-2020 14:54

WRC. Чемпионат мира по ралли. Обзоры (1-7 этапов из 7) 2020


Год выпуска: 2020
Вид спорта: автоспорт, ралли
Комментатор: Владимир Башмаков
Описание:
World Rally Championship 2020 года стал сорок восьмым сезоном гонок, признанных Международной автомобильной федерацией как высший класс раллийных соревнований. Команды должны были принять участие в четырнадцати этапах. Но пандемия внесла свои коррективы в календарь 2020 года и было проведено только 7 этапов. Экипажи боролись за титул на автомобилях соответствующих регламентам “World Rally Car” и “Group R”. Однако, набирать очки в кубке конструкторов было дозволено только производителям омологированным в соответствии с правилами 2017 года. На отдельных этапах проводились гонки поддержки, классов: “World Rally Championship-2”, “World Rally Championship-3” и “Junior World Rally Championship”. Отт Тянак и Мартин Ярвеоя начали год в качестве действующих чемпионов, которые завоевали свой первый титул на ралли Каталонии в 2019 году.
Качество видео: HDTVRip

Продолжительность: 7 x ~ 00:52:00
Формат: MKV
Видео: MPEG-4 AVC, 1280x720, ~4600 kbps, 50 кадр/с
Аудио: Русский (AC3, 2 ch, 192 Кбит/с), английский (MP2, 2 ch, 320 Кбит/с), natural sounds (MP2, 2 ch, 320 Кбит/с)

Автор рипов: olvlas RG Motors
Состав команд WRC 2020:


Этап World Rally Championship (WRC) состоит из Shakedown, свободных/квалификационных и специальных участков, которые проходят в несколько дней.
Порядок пилотов (P1 и P2) на старте специального участка определяется на базе их текущей временной классификации для:
- асфальтового этапа: прямой порядок;
- гравийного этапа: "реверсивный" порядок.

Зачётные очки пилотам (и штурманам) начисляются по итогам:
- специального участка "Power stage": первым 5-ти пилотам по системе "5-4-3-2-1";
- всех специальных участков: первым 10 пилотам по системе "25-18-15-12-10-8-6-4-2-1".

Изменения в регламенте:

Требования к болидам экипажей участвующих в соревнованиях будут упрощены до системы “FIA Rally Pyramid” (Пирамида ралли).
Верхний уровень требований, известный как “Rally 1” (Ралли 1) предназначен для болидов World Rally Cars – WRC. Ралли 1 создавался в соответствии с правилами введенными в 2017 году.
Второй уровень – Rally 2 (Мировой чемпионат по ралли 2), предназначен для крупных производителей и независимых профессиональных команд, участвующих в гонках по системе WRC2, на автомобилях класса R5.
За вторым уровнем следует “Rally 3” – WRC3 (Чемпионат мира по ралли 3) предназначен для частных команд и «джентльменов-любителей», которые также соревнуются на автомобилях “R5”.
Регламент, как и класс WRC4 (Чемпионат мира по ралли 4) в 2020 году не будет представлен в качестве отдельного чемпионата. Вместо этого он будет служить “мостом” – категорией нацеленной на возможность перехода команд из класса R2 в R5. Болиды R2 разрешено оснащать полным приводом и наделять более высокими показателями управляемости.
Последний уровень WRC5 (Чемпионат мира по ралли 5) – юниорский. Предназначен для экипажей участвующих в гонках на машинах R2 в “Чемпионате мира среди юниоров”.

ИЗМЕНЕНИЯ В КОМАНДАХ

В чемпионате 2020 года будут выступать команды Ford, Hyundai и Toyota. Их же экипажи имеют право бороться за кубок производителей.
Действующие чемпионы мира: Отт Тянак и Мартин Ярвеоя покинули “Toyota Gazoo Racing WRT”, переметнувшись в “Hyundai Motorsport”. Тьерри Невиль и Николя Жильсуль остались с Hyundai, отметив седьмой сезон с командой. Место Тянака займет Себастьян Ожье и Эльфин Эванс.
Себастьян Леб и Даниэль Элена также продлили свои контракты с командой. Они будут участвовать в чемпионате на неполном расписании (как и в прошлом году), разделяя болид с командой Дани Сордо и Карлоса дель Баррио.
“Citroen World Rally Team” покидает чемпионат, пообещав поддержку независимым командам конкурирующим на “R5 Citroen C3 WRC” в гонках-поддержки мирового чемпионата.

КАЛЕНДАРЬ ЧЕМПИОНАТА (версия октября 2020 года):

Код:

General
Unique ID : 256207623728984313907303692022079112328 (0xC0BFCB1FAB80DF93F54ABC7692114488)
Complete name : G:\Torrents\WRC 2020\WRC.2020.Round01.Monte.Carlo.Review.Sat.Feed.720p.x264.English.Russian.Natural.Sounds.mkv
Format : Matroska
Format version : Version 4
File size : 2.08 GiB
Duration : 52 min 5 s
Overall bit rate : 5 717 kb/s
Encoded date : UTC 2020-01-29 16:51:42
Writing application : mkvmerge v38.0.0 ('The Silent Type') 64-bit
Writing library : libebml v1.3.9 + libmatroska v1.5.2

Video
ID : 1
Format : AVC
Format/Info : Advanced Video Codec
Format profile : [email protected]
Format settings : CABAC / 4 Ref Frames
Format settings, CABAC : Yes
Format settings, Reference fra : 4 frames
Codec ID : V_MPEG4/ISO/AVC
Duration : 52 min 4 s
Bit rate : 4 561 kb/s
Width : 1 280 pixels
Height : 720 pixels
Display aspect ratio : 16:9
Frame rate mode : Constant
Frame rate : 50.000 FPS
Color space : YUV
Chroma subsampling : 4:2:0
Bit depth : 8 bits
Scan type : Progressive
Bits/(Pixel*Frame) : 0.099
Stream size : 1.66 GiB (80%)
Writing library : x264 core 148 r2705 3f5ed56
Encoding settings : cabac=1 / ref=3 / deblock=1:0:0 / analyse=0x3:0x113 / me=umh / subme=9 / psy=1 / psy_rd=1.00:0.00 / mixed_ref=1 / me_range=24 / chroma_me=1 / trellis=1 / 8x8dct=1 / cqm=0 / deadzone=21,11 / fast_pskip=1 / chroma_qp_offset=-2 / threads=12 / lookahead_threads=1 / sliced_threads=0 / nr=0 / decimate=1 / interlaced=0 / bluray_compat=0 / constrained_intra=0 / bframes=3 / b_pyramid=2 / b_adapt=1 / b_bias=0 / direct=1 / weightb=1 / open_gop=0 / weightp=2 / keyint=100 / keyint_min=10 / scenecut=40 / intra_refresh=0 / rc_lookahead=40 / rc=crf / mbtree=1 / crf=21.0 / qcomp=0.60 / qpmin=0 / qpmax=69 / qpstep=4 / vbv_maxrate=20000 / vbv_bufsize=25000 / crf_max=0.0 / nal_hrd=none / filler=0 / ip_ratio=1.40 / aq=1:1.00
Language : English
Default : Yes
Forced : No

Audio #1
ID : 2
Format : MPEG Audio
Format version : Version 1
Format profile : Layer 2
Codec ID : A_MPEG/L2
Codec ID/Hint : MP2
Duration : 52 min 4 s
Bit rate mode : Constant
Bit rate : 320 kb/s
Channel(s) : 2 channels
Sampling rate : 48.0 kHz
Frame rate : 41.667 FPS (1152 SPF)
Compression mode : Lossy
Stream size : 119 MiB (6%)
Language : English
Default : Yes
Forced : No

Audio #2
ID : 3
Format : AC-3
Format/Info : Audio Coding 3
Commercial name : Dolby Digital
Codec ID : A_AC3
Duration : 52 min 5 s
Bit rate mode : Constant
Bit rate : 192 kb/s
Channel(s) : 2 channels
Channel layout : L R
Sampling rate : 48.0 kHz
Frame rate : 31.250 FPS (1536 SPF)
Bit depth : 16 bits
Compression mode : Lossy
Stream size : 71.5 MiB (3%)
Language : Russian
Service kind : Complete Main
Default : No
Forced : No

Audio #3
ID : 4
Format : MPEG Audio
Format version : Version 1
Format profile : Layer 2
Codec ID : A_MPEG/L2
Codec ID/Hint : MP2
Duration : 52 min 4 s
Bit rate mode : Constant
Bit rate : 320 kb/s
Channel(s) : 2 channels
Sampling rate : 48.0 kHz
Frame rate : 41.667 FPS (1152 SPF)
Compression mode : Lossy
Stream size : 119 MiB (6%)
Default : No
Forced : No

Audio #4
ID : 5
Format : MPEG Audio
Format version : Version 1
Format profile : Layer 2
Codec ID : A_MPEG/L2
Codec ID/Hint : MP2
Duration : 52 min 4 s
Bit rate mode : Constant
Bit rate : 320 kb/s
Channel(s) : 2 channels
Sampling rate : 48.0 kHz
Frame rate : 41.667 FPS (1152 SPF)
Compression mode : Lossy
Stream size : 119 MiB (6%)
Default : No
Forced : No
WRC.2020.Round01.Monte.Carlo.Review.Sat.Feed.720p.x264.English.Russian.Natural.Sounds.mkv - обзор легендарного ралли Монте-Карло
WRC.2020.Round02.Sweden.Review.Sat.Feed.720p.x264.English.Russian.Natural.Sounds.mkv - обзор ралли Швеции
WRC.2020.Round03.Mexico.Review.Sat.Feed.720p.x264.English.Russian.Natural.Sounds.mkv - обзор ралли Мексики
WRC.2020.Round04.Estonia.Review.Sat.Feed.720p.x264.English.Russian.Natural.Sounds.mkv - обзор ралли Эстонии
WRC.2020.Round05.Turkey.Review.Sat.Feed.720p.x264.English.Russian.Natural.Sounds.mkv - обзор ралли Турции
WRC.2020.Round06.Sardinia.Review.Sat.Feed.720p.x264.English.Russian.Natural.Sounds.mkv - обзор ралли Сардинии, Италия
WRC.2020.Round07.Monza.Review.Sat.Feed.720p.x264.English.Russian.Natural.Sounds.mkv - обзор финала сезона Монца, Италия
Раздача обновлена. Добавлены 4-7 этапы. Перекачайте торрент.

Этот торрент недоступен для скачивания без регистрации, однако доступен по публичной magnet-ссылке (источники с публичных трекеров). Перед использованием ссылки прочтите, пожалуйста Пользовательское соглашение, а также как можно дольше оставайтесь на раздаче! Для того, чтобы скачать сам торрент-файл (который видит больше источников), а также для того, чтобы поблагодарить релизера, вам необходимо зарегистрироваться. Если регистрироваться лень - вы можете также попробовать скачать релиз по нашим партнерским ссылкам ниже. Кроме того, зарегистрированным пользователям не показывается всплывающая реклама при скачивании.

[underver.se].t163673.torrent
Трекер: Зарегистрирован   [ 27.01.2021 21:06 ]  

Статус: проверено (by eXtatik at 28.01.2021 18:19)
Поблагодарили: пока никто не поблагодарил...
Тип торрента: публичный - доступные источники с открытых трекеров: 
Размер: 13,71 GB (занимает 3,13 DVDR, для записи нужно 4 болванки DVDR/RW)
 
 
Похожие темы
Форум Тема Автор Торрент Отв. Посл. сооб.
T Формула-1 и автоспорт WRC. Чемпионат мира по ралли. Обзоры (1-13 этапов из 14) [2019 г., автоспорт, ралли, HDTVRip, 720p] nastya2009
1 | 0

0 | 554

0

10.04.2020 07:38

T Формула-1 и автоспорт WRC. Чемпионат мира по ралли. Обзоры (1-5 этапов из 12) [2021 г., автоспорт, ралли, IPTVRip 1080p] Original (Eng) nastya2009
1 | 1

1 | 267

0

01.05.2021 05:18



Последний раз редактировалось: nastya2009 (14.03.2021 09:49), всего редактировалось 3 раз(а)

nastya2009 Пол:Жен

10-Дек-2020 17:42

Всем доброго дня.
Давно не обновляла торрент по причине отсутствия у автора гонок в нужном для раздачи формате.
Могу поделиться ссылками на 4,5,6,7 этапы WRC 2020: (они в формате ts 1080p, поэтому не могу добавить их в данную раздачу)
Авто Плюс HD. WRC 2020. Обзор 4-го этапа (Эстония) (1080p).ts (1.3G)
https://drive.google.com/uc?id=1-pbOLILDZSdc6WJ9DFn...;export=download

Авто Плюс HD. WRC 2020. Обзор 5-го этапа (Турция) (1080p).ts (1.3G)
https://drive.google.com/uc?id=1q8R3Wxl6GwsE6P1tw0Y...;export=download

Авто Плюс HD. WRC 2020. Обзор 6-го этапа (Италия) (1080p).ts (1.3G)
https://drive.google.com/uc?id=1-Nj68tfB31qrvYbg9E1...;export=download

Ссылка на финал сезона, прошедший на территории легендарной Монцы:
Авто Плюс HD. WRC 2020. Обзор 7-го этапа (Италия) (1080p).ts (1.3G)
https://drive.google.com/uc?id=1ADoQnXcVbGJ1Pv339LM...;export=download

Спасибо TomBeckett
Кстати календарь чемпионата теперь выглядит так:
Этап в Бельгии был отменен.

nastya2009 Пол:Жен

27-Янв-2021 21:10

Раздача обновлена. Добавлены 4-7 этапы. Перекачайте торрент.

Яндекс.Метрика powered by Sphinx


В Н И М А Н И Е
Сайт не распространяет и не хранит электронные версии произведений, а лишь бесплатно и без коммерческой выгоды (не требуя взамен платы,
SMS и т.д.) предоставляет доступ к создаваемому пользователями каталогу ссылок на торрент-файлы, которые содержат только списки хеш-сумм.
Убедительная просьба с жалобами обращаться напрямую к пользователю, разместившему торрент файл.

Вверх