Loading...
Error

Светлячок / Firefly / Сезон: 1 / Серии: 1-14 из 14 (Джосс Уидон, Верн Джиллам, Тим Минеар) [2002, фантастика, боевик, драма, приключения, BDRip] MVO (LostFilm)

Статистика раздачи
Размер:  11.19 GB   |    Зарегистрирован:  19 дней   |    Скачан:  1 раз
Сидов:  1  |  0 KB/s  ]   Личеров:  0  |  0 KB/s  ]

* - сиды/пиры с внешних источников

   
 
Автор Сообщение

garry Пол:Муж

24-Июн-2011 20:21

Светлячок / Firefly / Сезон: 1 / Серии: 1-14 из 14

Год выпуска: 2002
Жанр: фантастика, боевик, драма, приключения
Страна: США
Режиссер: Джосс Уидон, Верн Джиллам, Тим Минеар
В ролях: Натан Филлион, Джина Торрес, Алан Тьюдик, Морена Баккарин, Адам Болдуин, Джуэл Стэйт, Шон Маэр, Саммер Глау, Рон Гласс, Кристина Хендрикс

Сюжет фильма: Капитан Малькольм Рейнольдс закаленный в боях ветеран галактической гражданской войны, сражавшийся не на той (проигравшей) стороне, зарабатывает на жизнь мелкими преступлениями и перевозит грузы на своем корабле Серенити.

Он возглавляет небольшую разношерстную команду, которая порядком смахивает на самую обычную семью ее члены вечно ссорятся, не соблюдают дисциплину, но никогда не предадут своего капитана и пойдут за ним хоть на край света.
Качество видео: BDRip

Продолжительность: 1x01:26 + 13x ~00:43:00
Формат: AVI
Видео: Xvid, 720x400, ~2000 kbps
Аудио: русский, многоголосый закадровый [профессиональный, LostFilm], AC3 5.1, 448 kbps

Релиз: Celta88
 
General
Complete name : F:\Светлячок (Сезон 1) LostFilm\Firefly.S01E01.BDRip.RGzsRutracker.Celta88.avi
Format : AVI
Format/Info : Audio Video Interleave
File size : 1.49 GiB
Duration : 1 h 26 min
Overall bit rate : 2 457 kb/s
Writing application : VirtualDubMod 1.5.10.2 (build 2540/release)
Writing library : VirtualDubMod build 2540/release

Video
ID : 0
Format : MPEG-4 Visual
Format profile : Advanced [email protected]
Format settings, BVOP : 1
Format settings, QPel : No
Format settings, GMC : No warppoints
Format settings, Matrix : Custom
Codec ID : XVID
Codec ID/Hint : XviD
Duration : 1 h 26 min
Bit rate : 2 000 kb/s
Width : 720 pixels
Height : 400 pixels
Display aspect ratio : 16:9
Frame rate : 23.976 (24000/1001) FPS
Color space : YUV
Chroma subsampling : 4:2:0
Bit depth : 8 bits
Scan type : Progressive
Compression mode : Lossy
Bits/(Pixel*Frame) : 0.290
Stream size : 1.21 GiB (81%)
Writing library : XviD 67

Audio
ID : 1
Format : AC-3
Format/Info : Audio Coding 3
Mode extension : CM (complete main)
Format settings, Endianness : Big
Codec ID : 2000
Duration : 1 h 26 min
Bit rate mode : Constant
Bit rate : 448 kb/s
Channel(s) : 6 channels
Channel positions : Front: L C R, Side: L R, LFE
Sampling rate : 48.0 kHz
Frame rate : 31.250 FPS (1536 spf)
Bit depth : 16 bits
Compression mode : Lossy
Stream size : 278 MiB (18%)
Alignment : Split accross interleaves
Interleave, duration : 42 ms (1.00 video frame)
Interleave, preload duratio : 500 ms

Также вы можете послушать саундтрек и почитать комикс

Этот торрент доступен для скачивания без регистрации. Перед тем, как его скачать, прочтите, пожалуйста Пользовательское соглашение, а также как можно дольше оставайтесь на раздаче! Также вы можете выкладывать этот торрент или ссылку на него на других интернет-ресурсах, в том числе на торрент трекерах. Для получение более подробной информации о релизе, а также для того, чтобы поблагодарить релизера, вам необходимо зарегистрироваться.

[underver.se].t15176.torrent
Трекер: Зарегистрирован   [ 11.09.2022 16:03 ]   [ торрент доступен для скачивания без регистрации ]

Статус: проверено (by ARI71 at 11.09.2022 16:16)
Поблагодарили: 1 человек
Тип торрента: публичный - доступные источники с открытых трекеров: 
Размер: 11.19 GB (занимает 2.56 DVDR, для записи нужно 3 болванки DVDR/RW)
 
 


Последний раз редактировалось: garry (11.09.2022 16:03), всего редактировалось 2 раз(а)

argento 

25-Июн-2011 12:29

Сезон снят один?

garry Пол:Муж

25-Июн-2011 12:58

argento
сезон снят один, но есть продолжение - фильм "Миссия Серенити"

proba212 

16-Июл-2011 04:09

спс

Golovinks 

16-Сен-2011 19:05

Классный сериал

serfermg Пол:Муж

30-Окт-2011 11:39

Класс

argento 

07-Апр-2012 09:43

Космовестерн

vova2112 Пол:Муж

12-Апр-2012 21:43

Кому интересно: Вот правельный порядок серий
1 "Serenity"
2 "The Train Job"
3 "Bushwhacked"
4 "Shindig"
5 "Safe"
6 "Our Mrs. Reynolds"
7 "Jaynestown"
8 "Out of Gas"
9 "Ariel"
10 "War Stories"
11 "Trash"
12 "The Message"
13 "Heart of Gold"
14 "Objects in Space"
Комикс "Serenity: Those Left Behind"
Фильм "Serenity"

Axelius Пол:Муж

01-Фев-2022 14:49

Хороший сериал

garry Пол:Муж

11-Сен-2022 16:04

замена на свежий рип с озвучкой LostFilm

Яндекс.Метрика powered by Sphinx


В Н И М А Н И Е
Сайт не распространяет и не хранит электронные версии произведений, а лишь бесплатно и без коммерческой выгоды (не требуя взамен платы,
SMS и т.д.) предоставляет доступ к создаваемому пользователями каталогу ссылок на торрент-файлы, которые содержат только списки хеш-сумм.
Убедительная просьба с жалобами обращаться напрямую к пользователю, разместившему торрент файл.

Вверх