Loading...
Error

Дедушка НЕлегкого поведения / Где моя челюсть, чувак / War with Grandpa (Тим Хилл) [2020 г., комедия, семейный, WEB-DLRip] MVO (AlphaProject)

Статистика раздачи
Размер:  1,46 GB   |    Зарегистрирован:  2 месяца 26 дней   |    Скачан:  53 раза
Сидов:  1  |  1 KB/s  ]   Личеров:  0  |  0 KB/s  ]

* - сиды/пиры с внешних источников

   
 
Автор Сообщение

makkol Пол:Муж

29-Авг-2020 10:21

Дедушка НЕлегкого поведения / Где моя челюсть, чувак / War with Grandpa
«Бумер VS Зумер. Кто победит в этой схватке?»


Год выпуска: 2020
Жанр: комедия, семейный
Производство: США [Marro Films, Emmett/Furla/Oasis Films (EFO Films), TRI G]
Режиссер: Тим Хилл
В ролях: Роберт Де Ниро, Оакс Фигли, Кристофер Уокен, Ума Турман, Джейн Сеймур, Роб Риггл, Лора Марано, Колин Форд, Т.Дж. МакГиббон, Чич Марин
Сюжет фильма:
История о своенравном мальчике Питере, вступающем в борьбу за личное пространство с овдовевшим дедушкой, который переселяется в его любимую комнату. Желая вытеснить деда, Питер разворачивает целую кампанию шалостей, но малоподвижный старик оказывается куда изобретательнее, чем можно было предположить.

  • Мировая премьера: 27 августа 2020
  • Российская премьера: 29 октября 2020


Качество видео: WEB-DLRip

Продолжительность: 01:38:10
Формат: AVI
Видео: XviD, 720x384 (1.85:1), 24.000 fps, 1924 kbps
Аудио: русский, любительский многоголосый закадровый (AlphaProject), AC3 2.0, 48 kHz, 192 kbps

Релиз:

Код:

Общее
Полное имя : Gde.moya.chelyusti.chuvak.2020.XviD.WEB-DLRip)-MediaBit.avi
Формат : AVI
Формат/Информация : Audio Video Interleave
Профиль формата : OpenDML
Размер файла : 1,46 Гбайт
Продолжительность : 1 ч. 38 м.
Общий поток : 2 128 Кбит/сек
Название фильма : War with Grandpa (2020)
Программа кодирования : Lavf58.20.100

Видео
Идентификатор : 0
Формат : MPEG-4 Visual
Профиль формата : Advanced [email protected]
Настройки формата : BVOP1 / Custom Matrix
Параметр BVOP формата : 1
Параметр QPel формата : Нет
Параметр GMC формата : Без точки перехода
Параметр матрицы формата : Выборочная
Идентификатор кодека : XVID
Идентификатор кодека/Подсказка : XviD
Продолжительность : 1 ч. 38 м.
Битрейт : 1 924 Кбит/сек
Ширина : 720 пикселей
Высота : 384 пикселя
Соотношение сторон : 1,85:1
Частота кадров : 24,000 кадра/сек
Цветовое пространство : YUV
Субдискретизация насыщенности : 4:2:0
Битовая глубина : 8 бит
Тип развёртки : Прогрессивная
Метод сжатия : С потерями
Бит/(Пиксели*Кадры) : 0.290
Размер потока : 1,32 Гбайт (90%)
Заголовок : MediaBit
Библиотека кодирования : XviD 67

Аудио
Идентификатор : 1
Формат : AC-3
Формат/Информация : Audio Coding 3
Коммерческое название : Dolby Digital
Идентификатор кодека : 2000
Продолжительность : 1 ч. 38 м.
Вид битрейта : Постоянный
Битрейт : 192 Кбит/сек
Каналы : 2 канала
Channel layout : L R
Частота : 48,0 КГц
Частота кадров : 31,250 кадров/сек (1536 SPF)
Битовая глубина : 16 бит
Метод сжатия : С потерями
Размер потока : 135 Мбайт (9%)
Выравнивание : Соединение по промежуткам
Продолжительность промежутка : 32 мс. (0,77 видеокадр)
Заголовок : MVO [AlphaProject] MediaBit
Service kind : Complete Main

Этот торрент недоступен для скачивания без регистрации, однако доступен по публичной magnet-ссылке (источники с публичных трекеров). Перед использованием ссылки прочтите, пожалуйста Пользовательское соглашение, а также как можно дольше оставайтесь на раздаче! Для того, чтобы скачать сам торрент-файл (который видит больше источников), а также для того, чтобы поблагодарить релизера, вам необходимо зарегистрироваться. Если регистрироваться лень - вы можете также попробовать скачать релиз по нашим партнерским ссылкам ниже. Кроме того, зарегистрированным пользователям не показывается всплывающая реклама при скачивании.

[underver.se].t178438.torrent
Трекер: Зарегистрирован   [ 29.08.2020 21:48 ]  

Статус: проверено (by makkol at 29.08.2020 21:48)
Поблагодарили: 1 человек
Тип торрента: публичный - доступные источники с открытых трекеров: 
Размер: 1,46 GB (занимает 1/3 DVDR, для записи нужно 1 болванка DVDR/RW)
 
 
Похожие темы
Форум Тема Автор Торрент Отв. Посл. сооб.
T Зарубежное кино [DVDRip, Low-Res HDRip, и т.д.] Дедушка НЕлегкого поведения / Где моя челюсть, чувак / The War with Grandpa (Тим Хилл) [2020 г., комедия, семейный, HDRip] Dub (Line) makkol
1375 | 27

0 | 689

62

27.10.2020 22:21

Зарубежное кино [HDDVDRip / BDRip / WEB-DL / HDTV 1080/720р] Дедушка НЕлегкого поведения / Где моя челюсть, чувак / War with Grandpa (Тим Хилл) [2020 г., комедия, семейный, WEB-DL 1080p] MVO (AlphaProject) makkol
122 | 7

1 | 758

56

29.08.2020 21:56

T Зарубежное кино [HDDVDRip / BDRip / WEB-DL / HDTV 1080/720р] Дедушка НЕлегкого поведения / Где моя челюсть, чувак / The War with Grandpa (Тим Хилл) [2020 г., комедия, семейный, BDRip 1080p] Dub (Line) makkol
154 | 6

0 | 569

21

27.10.2020 22:30



Последний раз редактировалось: makkol (27.10.2020 22:32), всего редактировалось 1 раз

makkol Пол:Муж

29-Авг-2020 21:48

Замена на рип без рекламы

Яндекс.Метрика powered by Sphinx


В Н И М А Н И Е
Сайт не распространяет и не хранит электронные версии произведений, а лишь бесплатно и без коммерческой выгоды (не требуя взамен платы,
SMS и т.д.) предоставляет доступ к создаваемому пользователями каталогу ссылок на торрент-файлы, которые содержат только списки хеш-сумм.
Убедительная просьба с жалобами обращаться напрямую к пользователю, разместившему торрент файл.

Вверх