Loading...
Error

Открытый микрофон / Сезон 5, Выпуски 1-15 из ?? (Роман Новиков, Аким Карташов) [2020 г., тв-шоу, юмор, WEB-DL] (обновляемая)

Статистика раздачи
Размер:  23.01 GB   |    Зарегистрирован:  1 год 10 месяцев   |    Скачан:  0 раз

Полного источника не было: 1 год

Сидов:  0  |  0 KB/s  ]   Личеров:  0  |  0 KB/s  ]

* - сиды/пиры с внешних источников

   
 
Автор Сообщение

eXtatik Пол:Муж

20-Окт-2020 15:30

Открытый микрофон (2020) WEB-DL [H.264/1080p-LQ] (сезон 5, выпуски 1-15 из ??) (обновляемая)

Телекомпания: ТНТ, Comedy Club Production
Жанр: ТВ-шоу, юмор

Режиссер: Роман Новиков, Аким Карташов

Описание:
Стартует новый сезон стендап-шоу «Открытый микрофон». Уже в самом первом выпуске с неожиданным заявлением выступит Юлия Ахмедова, а вместо Славы Комиссаренко появится новый наставник Иван Абрамов. Впрочем, на главный приз изменение никак не повлияет, победитель сезона снова получит 3 миллиона рублей. Ведущий шоу резидент Comedy Club Андрей Бебуришвили.



Возраст: 16+ (зрителям, достигшим 16 лет)

Релиз от: 25Kuzmich
Продолжительность: ~00:46:00 серия
Качество видео: WEB-DL
Субтитры: Отсутствуют

Видео: AVC/H.264, 1920x1072 (16:9), ~4410 Kbps
Аудио: AC3, 2 ch, 192 Kbps
 
Общее
Уникальный идентификатор : 235155770189901474951652536936323777652 (0xB0E95A9BD6D5B503E93767455A228474)
Полное имя : G:\Открытый микрофон, 5 сезон, 1 выпуск (14.08.2020) — смотреть онлайн видео, бесплатно! — Видеохостинг Rutube.mkv
Формат : Matroska
Версия формата : Version 4
Размер файла : 1,56 Гбайт
Продолжительность : 47 м. 35 с.
Режим общего битрейта : Переменный
Общий поток : 4 694 Кбит/сек
Программа кодирования : Lavf58.29.100
Библиотека кодирования : Lavf58.29.100
ErrorDetectionType : Per level 1

Видео
Идентификатор : 1
Формат : AVC
Формат/Информация : Advanced Video Codec
Профиль формата : [email protected]
Настройки формата : CABAC / 1 Ref Frames
Параметр CABAC формата : Да
Параметр RefFrames формата : 1 кадр
Параметр GOP формата : M=1, N=50
Идентификатор кодека : V_MPEG4/ISO/AVC
Продолжительность : 47 м. 35 с.
Вид битрейта : Переменный
Битрейт : 4 408 Кбит/сек
Максимальный битрейт : 4 500 Кбит/сек
Ширина : 1 920 пикселей
Высота : 1 072 пикселя
Соотношение сторон : 16:9
Режим частоты кадров : Постоянный
Частота кадров : 25,000 кадров/сек
Цветовое пространство : YUV
Субдискретизация насыщенности : 4:2:0
Битовая глубина : 8 бит
Тип развёртки : Прогрессивная
Бит/(Пиксели*Кадры) : 0.086
Размер потока : 1,47 Гбайт (94%)
Default : Да
Forced : Нет

Аудио
Идентификатор : 2
Формат : AC-3
Формат/Информация : Audio Coding 3
Коммерческое название : Dolby Digital
Идентификатор кодека : A_AC3
Продолжительность : 47 м. 35 с.
Вид битрейта : Постоянный
Битрейт : 192 Кбит/сек
Каналы : 2 канала
Channel layout : L R
Частота : 48,0 КГц
Частота кадров : 31,250 кадров/сек (1536 SPF)
Метод сжатия : С потерями
Размер потока : 65,4 Мбайт (4%)
Service kind : Complete Main
Default : Да
Forced : Нет

Скриншоты:
pic pic pic pic

Этот торрент недоступен для скачивания без регистрации, однако доступен по публичной magnet-ссылке (источники с публичных трекеров). Перед использованием ссылки прочтите, пожалуйста Пользовательское соглашение, а также как можно дольше оставайтесь на раздаче! Для того, чтобы скачать сам торрент-файл (который видит больше источников), а также для того, чтобы поблагодарить релизера, вам необходимо зарегистрироваться. Если регистрироваться лень - вы можете также попробовать скачать релиз по нашим партнерским ссылкам ниже. Кроме того, зарегистрированным пользователям не показывается всплывающая реклама при скачивании.

[underver.se].t185698.torrent
Трекер: Зарегистрирован   [ 22.11.2020 06:21 ]  
Статус: T временная (by eXtatik at 22.11.2020 06:21)
Поблагодарили: пока никто не поблагодарил...
Тип торрента: публичный - доступные источники с открытых трекеров: 
Размер: 23.01 GB (занимает 5.26 DVDR, для записи нужно 6 болванок DVDR/RW)
 
 


Последний раз редактировалось: eXtatik (22.11.2020 06:21), всего редактировалось 1 раз

eXtatik Пол:Муж

07-Ноя-2020 07:32

Добавлены выпуски 11-13

eXtatik Пол:Муж

22-Ноя-2020 06:21

Добавлены выпуски 14-15

Яндекс.Метрика powered by Sphinx


В Н И М А Н И Е
Сайт не распространяет и не хранит электронные версии произведений, а лишь бесплатно и без коммерческой выгоды (не требуя взамен платы,
SMS и т.д.) предоставляет доступ к создаваемому пользователями каталогу ссылок на торрент-файлы, которые содержат только списки хеш-сумм.
Убедительная просьба с жалобами обращаться напрямую к пользователю, разместившему торрент файл.

Вверх