Loading...
Error

(Trance, Euro-House) MC Вспышкинъ & Никифоровна (МС Вспышкин) - Sex - 2004, FLAC (image+.cue), lossless

Статистика раздачи
Размер:  443 MB   |    Зарегистрирован:  1 год 9 месяцев   |    Скачан:  4 раза

Полного источника не было: 7 дней

Сидов:  0  |  0 KB/s  ]   Личеров:  0  |  0 KB/s  ]

* - сиды/пиры с внешних источников

   
 
Автор Сообщение

Evgenii82 Пол:Муж

13-Дек-2020 14:20

МС Вспышкинъ & Никифоровна - Sex (2004)

Жанр: Trance, Euro-House
Год издания: 2004
Издатель (лейбл): Radio Record (KDK Bootlegs) [Р-23]
Страна: Russia
Аудиокодек: FLAC (*.flac)
Тип рипа: image+.cue
Битрейт аудио: lossless
Продолжительность: 00:53:25
Источник (релизер): Internet
Наличие сканов в содержимом раздачи: да
Треклист:
01. Sex :: 04:23
02. Колбасный Цех 3 (Шишки) :: 04:29
03. Колбасный Цех 2 :: 04:19
04. Дискотэка :: 03:18
05. Хорошо :: 03:34
06. Новогодняя (Меня Прёт) :: 05:07
07. МС Вспышкинъ & DJ Aligator - Davai, Davai :: 05:22
08. МС Вспышкинъ & Slim Line - I'm Back (Вспышка 2003) :: 03:49
09. КПП :: 04:56
10. Бессоница :: 05:22
11. Sex (Slim Line Remix) :: 03:19
12. Колбасный Цех 3 (Nikiforovna Remix) :: 05:20
 
Exact Audio Copy V0.99 prebeta 5 from 4. May 2009

Отчёт EAC об извлечении, выполненном 9. ноября 2011, 14:36

МС Вспышкинъ & Никифоровна / Sex

Дисковод: HL-DT-STDVDRAM GH22NS50 Adapter: 0 ID: 0

Режим чтения : Достоверность
Использование точного потока : Да
Отключение кэша аудио : Да
Использование указателей C2 : Нет

Коррекция смещения при чтении : 667
Способность читать области Lead-in и Lead-out : Нет
Заполнение пропущенных сэмплов тишиной : Да
Удаление блоков с тишиной в начале и конце : Нет
При вычислениях CRC использовались нулевые сэмплы : Да
Интерфейс : Установленный внешний ASPI-интерфейс

Выходной формат : Внутренние WAV-операции
Формат сэмплов : 44.100 Гц; 16 бит; стерео

TOC извлечённого CD

Трек | Старт | Длительность | Начальный сектор | Конечный сектор
---------------------------------------------------------------------
1 | 0:00.00 | 4:23.66 | 0 | 19790
2 | 4:23.66 | 4:29.17 | 19791 | 39982
3 | 8:53.08 | 4:19.47 | 39983 | 59454
4 | 13:12.55 | 3:18.54 | 59455 | 74358
5 | 16:31.34 | 3:34.46 | 74359 | 90454
6 | 20:06.05 | 5:07.30 | 90455 | 113509
7 | 25:13.35 | 5:22.73 | 113510 | 137732
8 | 30:36.33 | 3:49.05 | 137733 | 154912
9 | 34:25.38 | 4:56.52 | 154913 | 177164
10 | 39:22.15 | 5:22.61 | 177165 | 201375
11 | 44:45.01 | 3:19.64 | 201376 | 216364
12 | 48:04.65 | 5:20.41 | 216365 | 240405
13 | 55:57.31 | 10:17.19 | 251806 | 298099

Характеристики диапазона извлечения и сообщения об ошибках

Выбранный диапазон

Имя файла C:\rip.flacmusic.ru\МС Вспышкинъ & Никифоровна - Sex.wav

Пиковый уровень 100.0 %
Качество диапазона 99.9 %
CRC теста 1752BC91
CRC копии 1752BC91
Копирование... OK

Ошибок не произошло

AccurateRip: сводка

Трек 1 нет в базе данных
Трек 2 нет в базе данных
Трек 3 нет в базе данных
Трек 4 нет в базе данных
Трек 5 нет в базе данных
Трек 6 нет в базе данных
Трек 7 нет в базе данных
Трек 8 нет в базе данных
Трек 9 нет в базе данных
Трек 10 нет в базе данных
Трек 11 нет в базе данных
Трек 12 нет в базе данных

Ни одного трека нет в базе AccurateRip

Конец отчёта
 
-----------------------

DON'T MODIFY THIS FILE

-----------------------

PERFORMER: auCDtect Task Manager, ver. 1.5.1RC6 build 1.5.1.7
Copyright (c) 2008-2010 y-soft. All rights reserved
http://y-soft.org

ANALYZER: auCDtect: CD records authenticity detector, version 0.8.2
Copyright (c) 2004 Oleg Berngardt. All rights reserved.
Copyright (c) 2004 Alexander Djourik. All rights reserved.

FILE: МС Вспышкинъ & Никифоровна - Sex.flac
Size: 406337586 Hash: E0D6B591B434B2372BE27650D5343D3E Accuracy: -m0
Conclusion: CDDA 100%
Signature: AB3A4FEBEBD6037319BE004DC556011C3738F9A3
Доп. информация: НЕ ЗАБЫВАЕМ ОСТАВЛЯТЬ КОММЕНТАРИИ И "СПАСИБО" !

Время раздачи: круглосуточно

Этот торрент недоступен для скачивания без регистрации, однако доступен по публичной magnet-ссылке (источники с публичных трекеров). Перед использованием ссылки прочтите, пожалуйста Пользовательское соглашение, а также как можно дольше оставайтесь на раздаче! Для того, чтобы скачать сам торрент-файл (который видит больше источников), а также для того, чтобы поблагодарить релизера, вам необходимо зарегистрироваться. Если регистрироваться лень - вы можете также попробовать скачать релиз по нашим партнерским ссылкам ниже. Кроме того, зарегистрированным пользователям не показывается всплывающая реклама при скачивании.

[underver.se].t192375.torrent
Трекер: Зарегистрирован   [ 13.12.2020 14:20 ]  
Статус: проверено (by Evgenii82 at 13.12.2020 14:23)
Поблагодарили: пока никто не поблагодарил...
Тип торрента: публичный - доступные источники с открытых трекеров: 
Размер: 443 MB (занимает 0.1 DVDR, для записи нужно 1 болванка DVDR/RW)
 
 

Яндекс.Метрика powered by Sphinx


В Н И М А Н И Е
Сайт не распространяет и не хранит электронные версии произведений, а лишь бесплатно и без коммерческой выгоды (не требуя взамен платы,
SMS и т.д.) предоставляет доступ к создаваемому пользователями каталогу ссылок на торрент-файлы, которые содержат только списки хеш-сумм.
Убедительная просьба с жалобами обращаться напрямую к пользователю, разместившему торрент файл.

Вверх