Loading...
Error

Зависнуть в Палм-Спрингс / Палм-Спрингс / Palm Springs (Макс Барбаков / Max Barbakow) [2020 г., комедия, фантастика, WEB-DL 1080p] Dub (Rus iTunes) + Dub (Ukr Line) + AVO (Пучков, без цензуры) + Original (Eng) + Sub (Rus, Eng)

Статистика раздачи
Размер:  6,51 GB   |    Зарегистрирован:  3 дня   |    Скачан:  9 раз
Сидов:  3  |  229 KB/s  ]   Личеров:  0  |  0 KB/s  ]

* - сиды/пиры с внешних источников

   
 
Автор Сообщение

90ytr90 

13-Янв-2021 21:13

Зависнуть в Палм-Спрингс / Palm Springs


Название: Зависнуть в Палм-Спрингс
Оригинальное название: Palm Springs
Год выхода: 2020
Жанр: Комедия, мелодрама, фантастика
Режиссер-постановщик: Макс Барбаков
В фильме снимались: Энди Сэмберг, Кристин Милиоти, Дж.К. Симмонс, Тайлер Хэклин, Питер Галлахер, Дейл Дикки, Камила Мендес, Жаклин Обрадорс, Мередит Хагнер, Крис Пэнг

Описание: 9 ноября неподалёку от Палм-Спрингс идёт подготовка к свадьбе. Найлз, парень одной из подружек невесты, не торопится облачаться в смокинг - в шортах и гавайской рубашке он запрыгивает в бассейн и целый день расслабленно выпивает, а вечером произносит трогательную речь для молодожёнов. Последнее особенно впечатляет старшую сестру невесты Сару, и вот уже девушка оказывается с Найлзом наедине под звёздным небом. Но тут события принимают неожиданный поворот, и Сара вслед за своим новым приятелем заходит в загадочную пещеру, а на следующий день обнаруживает, что на календаре снова 9 ноября.



Выпущено: США / Limelight, Sun Entertainment Culture, The Lonely Island
Продолжительность: 01:30:05
Озвучивание #1: Дублированное | iTunes
Озвучивание #2: Дублированное [Украинский язык] | Line
Озвучивание #3: Авторское (одноголосое) | Д. Пучков - Гоблин

Формат: MKV (x264)
Качество: WEB-DL 1080p | AMAZON Version
Видео: MPEG-4 AVC, 8486 Kb/s, 1920x800
Звук #1: Russian: 48 kHz, AC3 Dolby Digital, 3/2 (L, C, R, l, r) + LFE ch, ~384 Kbps | DUB | iTunes
Звук #2: Ukrainian: 48 kHz, AC3 Dolby Digital, 2/0 (L, R) ch, ~192 Kbps | DUB | Line
Звук #3: Russian: 48 kHz, AC3 Dolby Digital, 3/2 (L, C, R, l, r) + LFE ch, ~640 Kbps | VO | Гоблин
Звук #4: English: 48 kHz, Enhanced AC3 Dolby Digital, 3/2 (L, C, R, l, r) + LFE ch, ~640 Kbps | Original
Субтитры: Russian (Forced, Full), English (SDH)
Дополнительно: Сохранены оригинальные чаптеры.

Релиз группы &
Complete name: Palm.Springs.2020.1080p.AMZN.WEB-DL.ELEKTRI4KA.UNIONGANG.mkv
Format: Matroska
Format version: Version 4 / Version 2
File size: 6.51 GiB
Duration: 1 h 30 min
Overall bit rate: 10.3 Mb/s
Movie name: .ELEKTRI4KA.UNIONGANG.
Encoded date: UTC 2021-01-12 22:22:15
Writing application: mkvmerge v8.3.0 ('Over the Horizon') 64bit
Writing library: libebml v1.3.1 + libmatroska v1.4.2

Video
ID: 1
Format: AVC
Format/Info: Advanced Video Codec
Format profile: [email protected]
Format settings, CABAC: Yes
Format settings, Reference frames: 4 frames
Codec ID: V_MPEG4/ISO/AVC
Duration: 1 h 30 min
Bit rate mode: Constant
Bit rate: 8 486 kb/s
Nominal bit rate: 10 000 kb/s
Width: 1 920 pixels
Height: 800 pixels
Display aspect ratio: 2.40:1
Frame rate mode: Constant
Frame rate: 23.976 (24000/1001) FPS
Color space: YUV
Chroma subsampling: 4:2:0
Bit depth: 8 bits
Scan type: Progressive
Bits/(Pixel*Frame): 0.230
Stream size: 5.34 GiB (82%)
Title: .ELEKTRI4KA.UNIONGANG.
Language: English
Default: Yes
Forced: No
Color range: Limited
Color primaries: BT.709
Transfer characteristics: BT.709
Matrix coefficients: BT.709

Audio #1
ID: 2
Format: AC-3
Format/Info: Audio Coding 3
Mode extension: CM (complete main)
Format settings, Endianness: Big
Codec ID: A_AC3
Duration: 1 h 30 min
Bit rate mode: Constant
Bit rate: 384 kb/s
Channel(s): 6 channels
Channel positions: Front: L C R, Side: L R, LFE
Sampling rate: 48.0 kHz
Frame rate: 31.250 FPS (1536 spf)
Bit depth: 16 bits
Compression mode: Lossy
Stream size: 247 MiB (4%)
Title: DUB (iTunes)
Language: Russian
Default: Yes
Forced: Yes

Audio #2
ID: 3
Format: AC-3
Format/Info: Audio Coding 3
Mode extension: CM (complete main)
Format settings, Endianness: Big
Codec ID: A_AC3
Duration: 1 h 30 min
Bit rate mode: Constant
Bit rate: 192 kb/s
Channel(s): 2 channels
Channel positions: Front: L R
Sampling rate: 48.0 kHz
Frame rate: 31.250 FPS (1536 spf)
Bit depth: 16 bits
Compression mode: Lossy
Stream size: 124 MiB (2%)
Title: DUB (Line)
Language: Ukrainian
Default: No
Forced: No

Audio #3
ID: 4
Format: AC-3
Format/Info: Audio Coding 3
Mode extension: CM (complete main)
Format settings, Endianness: Big
Codec ID: A_AC3
Duration: 1 h 30 min
Bit rate mode: Constant
Bit rate: 640 kb/s
Channel(s): 6 channels
Channel positions: Front: L C R, Side: L R, LFE
Sampling rate: 48.0 kHz
Frame rate: 31.250 FPS (1536 spf)
Bit depth: 16 bits
Compression mode: Lossy
Stream size: 412 MiB (6%)
Title: VO (D.Puchkov)
Language: Russian
Default: No
Forced: No

Audio #4
ID: 5
Format: E-AC-3
Format/Info: Enhanced Audio Coding 3
Format settings, Endianness: Big
Codec ID: A_EAC3
Duration: 1 h 30 min
Bit rate mode: Constant
Bit rate: 640 kb/s
Channel(s): 6 channels
Channel positions: Front: L C R, Side: L R, LFE
Sampling rate: 48.0 kHz
Frame rate: 187.500 FPS (256 spf)
Compression mode: Lossy
Stream size: 412 MiB (6%)
Title: Original
Language: English
Default: No
Forced: No

Text #1
ID: 6
Format: UTF-8
Codec ID: S_TEXT/UTF8
Codec ID/Info: UTF-8 Plain Text
Duration: 1 h 3 min
Bit rate: 2 b/s
Count of elements: 19
Stream size: 1.01 KiB (0%)
Title: Forced
Language: Russian
Default: Yes
Forced: No

Text #2
ID: 7
Format: UTF-8
Codec ID: S_TEXT/UTF8
Codec ID/Info: UTF-8 Plain Text
Duration: 1 h 24 min
Bit rate: 98 b/s
Count of elements: 1257
Stream size: 60.8 KiB (0%)
Title: Full
Language: Russian
Default: No
Forced: No

Text #3
ID: 8
Format: UTF-8
Codec ID: S_TEXT/UTF8
Codec ID/Info: UTF-8 Plain Text
Duration: 1 h 29 min
Bit rate: 76 b/s
Count of elements: 1762
Stream size: 50.7 KiB (0%)
Title: SDH
Language: English
Default: No
Forced: No

Menu
00:00:00.000: en:Studio Logos
00:00:17.000: en:Title Sequence
00:00:25.000: en:Pre-wedding jitters
00:02:49.000: en:Wedding celebrations
00:08:22.000: en:Finding connections at the wedding
00:11:31.000: en:A crazy night in the desert
00:13:46.000: en:A twist in the story
00:18:01.000: en:Stuck in a loop
00:21:19.000: en:Running away
00:23:43.000: en:Learning to suffer existence
00:34:05.000: en:Selfless acts
00:36:13.000: en:Starting again
00:36:43.000: en:Wasting time
00:41:05.000: en:A special night in the desert
00:46:53.000: en:Revelations
00:53:55.000: en:Where is Sarah
00:59:56.000: en:Nyles gives up
01:04:34.000: en:Sarah takes matters into her own hands
01:06:45.000: en:A new plan
01:15:34.000: en:Finding out how to live
01:16:58.000: en:Confessions
01:22:00.000: en:Another sunny day in Palm Springs
01:24:46.000: en:End Credits

Этот торрент недоступен для скачивания без регистрации, однако доступен по публичной magnet-ссылке (источники с публичных трекеров). Перед использованием ссылки прочтите, пожалуйста Пользовательское соглашение, а также как можно дольше оставайтесь на раздаче! Для того, чтобы скачать сам торрент-файл (который видит больше источников), а также для того, чтобы поблагодарить релизера, вам необходимо зарегистрироваться. Если регистрироваться лень - вы можете также попробовать скачать релиз по нашим партнерским ссылкам ниже. Кроме того, зарегистрированным пользователям не показывается всплывающая реклама при скачивании.

[underver.se].t195054.torrent
Трекер: Зарегистрирован   [ 13.01.2021 21:13 ]  

Статус: * не проверено
Поблагодарили: пока никто не поблагодарил...
Тип торрента: публичный - доступные источники с открытых трекеров: 
Размер: 6,51 GB (занимает 1,49 DVDR, для записи нужно 2 болванки DVDR/RW)
 
 
Похожие темы
Форум Тема Автор Торрент Отв. Посл. сооб.
Зарубежное кино [DVDRip, Low-Res HDRip, и т.д.] Зависнуть в Палм-Спрингс / Палм-Спрингс / Palm Springs (Макс Барбаков / Max Barbakow) [2020 г., комедия, фантастика, WEB-DLRip] MVO (@[email protected]) 90ytr90
42 | 0

0 | 1205

23

13.07.2020 19:18

Зарубежное кино [DVDRip, Low-Res HDRip, и т.д.] Зависнуть в Палм-Спрингс / Палм-Спрингс / Palm Springs (Макс Барбаков / Max Barbakow) [2020 г., комедия, фантастика, WEB-DLRip] MVO (HDRezka Studio, без цензуры) + Sub (Rus) 90ytr90
210 | 0

0 | 1518

49

14.07.2020 17:15

Зарубежное кино [DVDRip, Low-Res HDRip, и т.д.] Зависнуть в Палм-Спрингс / Палм-Спрингс / Palm Springs (Макс Барбаков) [2020 г., комедия, мелодрама, фантастика, WEB-DLRip] Dub (iTunes) makkol
869 | 16

0 | 950

38

14.08.2020 10:59

Зарубежное кино [HDDVDRip / BDRip / WEB-DL / HDTV 1080/720р] Зависнуть в Палм-Спрингс / Палм-Спрингс / Palm Springs (Макс Барбаков / Max Barbakow) [2020 г., комедия, фантастика, WEB-DL 1080p] AVO (Пучков, без цензуры) + Original (Eng) + Sub (Rus, Eng) 90ytr90
191 | 6

0 | 853

28

22.12.2020 10:48

T Зарубежное кино [HDDVDRip / BDRip / WEB-DL / HDTV 1080/720р] Зависнуть в Палм-Спрингс / Палм-Спрингс / Palm Springs (Макс Барбаков / Max Barbakow) [2020 г., комедия, фантастика, WEBRip 720p] MVO (@[email protected]) 90ytr90
3 | 2

0 | 1130

17

10.07.2020 17:22

Зарубежное кино [HDDVDRip / BDRip / WEB-DL / HDTV 1080/720р] Зависнуть в Палм-Спрингс / Палм-Спрингс / Palm Springs (Макс Барбаков / Max Barbakow) [2020 г., комедия, фантастика, WEB-DLRip 1080p] MVO (@[email protected]) + Original (Eng) + Sub (Eng, Spa) 90ytr90
31 | 1

0 | 1666

19

13.07.2020 19:17

Зарубежное кино [HDDVDRip / BDRip / WEB-DL / HDTV 1080/720р] Зависнуть в Палм-Спрингс / Палм-Спрингс / Palm Springs (Макс Барбаков / Max Barbakow) [2020 г., комедия, фантастика, WEB-DL 1080p] MVO (HDRezka Studio, без цензуры) + Original (Eng) + Sub (Rus, Eng) 90ytr90
242 | 5

0 | 3109

87

14.07.2020 13:22

Зарубежное кино [HDDVDRip / BDRip / WEB-DL / HDTV 1080/720р] Зависнуть в Палм-Спрингс / Палм-Спрингс / Palm Springs (Макс Барбаков / Max Barbakow) [2020 г., комедия, фантастика, WEB-DL 1080p] DVO (Кубик в Кубе, без цензуры) + Original (Eng) + Sub (Rus, Eng) 90ytr90
296 | 2

0 | 850

25

15.08.2020 10:09

Зарубежное кино [HDDVDRip / BDRip / WEB-DL / HDTV 1080/720р] Зависнуть в Палм-Спрингс / Палм-Спрингс / Palm Springs (Макс Барбаков) [2020, Комедия, мелодрама, фантастика, WEB-DL 720p] Dub (iTunes) + Original + Sub (Rus/Eng/Sp) Konin
78 | 0

0 | 984

11

12.08.2020 20:26

Зарубежное кино [HDDVDRip / BDRip / WEB-DL / HDTV 1080/720р] Зависнуть в Палм-Спрингс / Палм-Спрингс / Palm Springs (Макс Барбаков) [2020, Комедия, мелодрама, фантастика, WEB-DL 1080p] Dub (iTunes) + Original + Sub (Rus/Eng/Sp) Konin
1040 | 33

0 | 1456

53

12.08.2020 20:26


Яндекс.Метрика powered by Sphinx


В Н И М А Н И Е
Сайт не распространяет и не хранит электронные версии произведений, а лишь бесплатно и без коммерческой выгоды (не требуя взамен платы,
SMS и т.д.) предоставляет доступ к создаваемому пользователями каталогу ссылок на торрент-файлы, которые содержат только списки хеш-сумм.
Убедительная просьба с жалобами обращаться напрямую к пользователю, разместившему торрент файл.

Вверх