Loading...
Error

Дикая Азия (В царстве рыжей обезьяны) / Wild Asia: In the Realm of the Red Ape () [2001 г., Документальный, познавательный, природа, флора, фауна, BDRip 1080p] VO + Original

Статистика раздачи
Размер:  4.37 GB   |    Зарегистрирован:  1 год 8 месяцев   |    Скачан:  2 раза

Полного источника не было: 4 месяца 28 дней

Сидов:  0  |  0 KB/s  ]   Личеров:  0  |  0 KB/s  ]

* - сиды/пиры с внешних источников

   
 
Автор Сообщение

Evgenii82 Пол:Муж

20-Янв-2021 15:32

Дикая Азия (В царстве рыжей обезьяны) / Wild Asia: In the Realm of the Red Ape


Год выпуска: 2001
Жанр: Документальный, познавательный, природа, флора, фауна
Страна: США
Сюжет фильма:
Фильм из серии Wild Asia посвящен самым обаятельным обезьянам - орангутанам, что в переводе означает лесные люди, и другим обитателям тропического леса Юго-Восточной Азии.
Качество видео: BDRip 1080p

Продолжительность: 00:52:12
Формат: MKV
Видео: MPEG-4 AVC, 1920x1080, 11100 Кбит/с
Аудио #1: русский, одноголосый закадровый [любительский], AC3 2.0, 448 kbps
Аудио #2: английский, оригинал, AC3 2.0, 448 kbps
Субтитры #1: тип: вшитые отключаемые, русский,
Субтитры #2: тип: вшитые отключаемые, английский,

Код:

General
Unique ID                      : 224407899264528808334264326625151567902 (0xA8D363A8D74B117D97233C05624E481E)
Complete name                  : K:\Торренты\Wild.Asia.In.the.Realm.of.the.Red.Ape.BDRip.1080p.mkv
Format                         : Matroska
Format version                 : Version 2
File size                      : 4.37 GiB
Duration                       : 52 min 12 s
Overall bit rate               : 12.0 Mb/s
Encoded date                   : UTC 2011-03-13 17:12:14
Writing application            : mkvmerge v3.0.0 ('Hang up your Hang-Ups') built on Dec 12 2009 15:20:35
Writing library                : libebml v0.7.9 + libmatroska v0.8.1

Video
ID                             : 1
Format                         : AVC
Format/Info                    : Advanced Video Codec
Format profile                 : [email protected]
Format settings                : CABAC / 4 Ref Frames
Format settings, CABAC         : Yes
Format settings, Reference fra : 4 frames
Codec ID                       : V_MPEG4/ISO/AVC
Duration                       : 52 min 12 s
Bit rate                       : 11.1 Mb/s
Width                          : 1 920 pixels
Height                         : 1 080 pixels
Display aspect ratio           : 16:9
Frame rate mode                : Constant
Frame rate                     : 23.976 FPS
Color space                    : YUV
Chroma subsampling             : 4:2:0
Bit depth                      : 8 bits
Scan type                      : Progressive
Bits/(Pixel*Frame)             : 0.224
Stream size                    : 3.98 GiB (91%)
Title                          : Wild Asia 1: In the Realm of the Red Ape
Writing library                : x264 core 104 r1713 c276662
Encoding settings              : cabac=1 / ref=5 / deblock=1:-2:-2 / analyse=0x3:0 / me=esa / subme=10 / psy=1 / psy_rd=1.00:0.10 / mixed_ref=1 / me_range=16 / chroma_me=1 / trellis=2 / 8x8dct=1 / cqm=0 / deadzone=21,11 / fast_pskip=0 / chroma_qp_offset=-3 / threads=3 / sliced_threads=0 / nr=0 / decimate=1 / interlaced=0 / constrained_intra=0 / bframes=9 / b_pyramid=1 / b_adapt=2 / b_bias=0 / direct=3 / weightb=1 / open_gop=0 / weightp=2 / keyint=250 / keyint_min=23 / scenecut=40 / intra_refresh=0 / rc_lookahead=40 / rc=2pass / mbtree=1 / bitrate=11150 / ratetol=1.0 / qcomp=0.60 / qpmin=10 / qpmax=51 / qpstep=4 / cplxblur=20.0 / qblur=0.5 / vbv_maxrate=50000 / vbv_bufsize=50000 / ip_ratio=1.40 / aq=1:0.90 / nal_hrd=none
Language                       : Russian
Default                        : No
Forced                         : No

Audio #1
ID                             : 2
Format                         : AC-3
Format/Info                    : Audio Coding 3
Commercial name                : Dolby Digital
Codec ID                       : A_AC3
Duration                       : 52 min 12 s
Bit rate mode                  : Constant
Bit rate                       : 448 kb/s
Channel(s)                     : 2 channels
Channel layout                 : L R
Sampling rate                  : 48.0 kHz
Frame rate                     : 31.250 FPS (1536 SPF)
Compression mode               : Lossy
Stream size                    : 167 MiB (4%)
Title                          : Russian
Language                       : Russian
Service kind                   : Complete Main
Default                        : Yes
Forced                         : No

Audio #2
ID                             : 3
Format                         : AC-3
Format/Info                    : Audio Coding 3
Commercial name                : Dolby Digital
Codec ID                       : A_AC3
Duration                       : 52 min 12 s
Bit rate mode                  : Constant
Bit rate                       : 384 kb/s
Channel(s)                     : 2 channels
Channel layout                 : L R
Sampling rate                  : 48.0 kHz
Frame rate                     : 31.250 FPS (1536 SPF)
Compression mode               : Lossy
Stream size                    : 143 MiB (3%)
Title                          : English
Language                       : English
Service kind                   : Complete Main
Default                        : No
Forced                         : No

Text #1
ID                             : 4
Format                         : UTF-8
Codec ID                       : S_TEXT/UTF8
Codec ID/Info                  : UTF-8 Plain Text
Title                          : Russian
Language                       : Russian
Default                        : No
Forced                         : No

Text #2
ID                             : 5
Format                         : UTF-8
Codec ID                       : S_TEXT/UTF8
Codec ID/Info                  : UTF-8 Plain Text
Title                          : English
Language                       : English
Default                        : No
Forced                         : No

Этот торрент недоступен для скачивания без регистрации, однако доступен по публичной magnet-ссылке (источники с публичных трекеров). Перед использованием ссылки прочтите, пожалуйста Пользовательское соглашение, а также как можно дольше оставайтесь на раздаче! Для того, чтобы скачать сам торрент-файл (который видит больше источников), а также для того, чтобы поблагодарить релизера, вам необходимо зарегистрироваться. Если регистрироваться лень - вы можете также попробовать скачать релиз по нашим партнерским ссылкам ниже. Кроме того, зарегистрированным пользователям не показывается всплывающая реклама при скачивании.

[underver.se].t195850.torrent
Трекер: Зарегистрирован   [ 20.01.2021 15:32 ]  
Статус: проверено (by Evgenii82 at 20.01.2021 16:09)
Поблагодарили: пока никто не поблагодарил...
Тип торрента: публичный - доступные источники с открытых трекеров: 
Размер: 4.37 GB (занимает 1 DVDR, для записи нужно 1 болванка DVDR/RW)
 
 

Яндекс.Метрика powered by Sphinx


В Н И М А Н И Е
Сайт не распространяет и не хранит электронные версии произведений, а лишь бесплатно и без коммерческой выгоды (не требуя взамен платы,
SMS и т.д.) предоставляет доступ к создаваемому пользователями каталогу ссылок на торрент-файлы, которые содержат только списки хеш-сумм.
Убедительная просьба с жалобами обращаться напрямую к пользователю, разместившему торрент файл.

Вверх