Loading...
Error

Том и Джерри / Tom and Jerry (Тим Стори / Tim Story) [2021 г., комедия, приключения, семейный, мультфильм, WEB-DL 1080p] Sub (Rus, Eng, Spa) + Original (Eng)

Статистика раздачи
Размер:  6.35 GB   |    Зарегистрирован:  1 год 7 месяцев   |    Скачан:  15 раз

Полного источника не было: 6 месяцев

Сидов:  0  |  0 KB/s  ]   Личеров:  0  |  0 KB/s  ]

* - сиды/пиры с внешних источников

   
 
Автор Сообщение

90ytr90 

27-Фев-2021 19:16

Том и Джерри / Tom and Jerry
«Best of Enemies. Worst of Friends»

Страна: Великобритания, Франция, Германия, США
Год выпуска: 2021
Жанр: комедия, приключения, семейный, мультфильм
Продолжительность: 01:41:02
Озвучивание: оригинальная звуковая дорожка [английский]
Перевод: субтитры
Режиссёр: Тим Стори / Tim Story

Роли озвучивали:
    Хлоя Грейс Морец, Майкл Пенья, Том, Джерри, Джордан Болджер, Робани, Пэтси Ферран, Паллави Шарда, Колин Жост, Соми Гуха, Аджай Чабра, Патрик Полетти, Дженис Ахерн, Камилла Арведсон, Кен Жонг, Джо Боун, Брайан Бовелл


Сюжет фильма:
    Кайла, работница престижного отеля, где обитает мышонок Джерри, рискующий нарушить ход дорогой свадьбы, нанимает уличного кота Тома, чтобы разобраться с наглым грызуном. Но решить эту проблему не так-то просто.

  • Дата мировой премьеры: 11 февраля 2021
  • Дата российской премьеры: 25 февраля 2021, «Каро-Премьер»
             
Качество видео: WEB-DL 1080p
Исходник: Tom.and.Jerry.2021.1080p.WEB.H264-NAISU
Формат: MKV
Видео: AVC, 1920x1080 (16:9), 8221 kbps, 23.976 (24000/1001) fps, 0.165 bit/pixel
Аудио: E-AC3 JOC, 768 kbps, 6 ch, 48 kHz, Original [English]
Субтитры: Russian (full.Focs), English (full, SDH), Spanish
  
General
Unique ID : 254186614570608937234765427521148550146 (0xBF3A8FADD800A67D988E34ADB465FC02)
Complete name : Tom.and.Jerry.2021.1080p.WEB.H264.Sub.Rus.mkv
Format : Matroska
Format version : Version 4
File size : 6.35 GiB
Duration : 1 h 41 min
Overall bit rate mode : Variable
Overall bit rate : 8 992 kb/s
Encoded date : UTC 2021-02-27 17:00:43
Writing application : mkvmerge v7.1.0 ('Good Love') 64bit built on Jul 27 2014 13:06:55
Writing library : libebml v1.3.0 + libmatroska v1.4.1

Video
ID : 1
Format : AVC
Format/Info : Advanced Video Codec
Format profile : [email protected]
Format settings : CABAC / 4 Ref Frames
Format settings, CABAC : Yes
Format settings, Reference fra : 4 frames
Codec ID : V_MPEG4/ISO/AVC
Duration : 1 h 41 min
Bit rate mode : Variable
Bit rate : 8 221 kb/s
Maximum bit rate : 12.4 Mb/s
Width : 1 920 pixels
Height : 1 080 pixels
Display aspect ratio : 16:9
Frame rate mode : Constant
Frame rate : 23.976 (24000/1001) FPS
Color space : YUV
Chroma subsampling : 4:2:0
Bit depth : 8 bits
Scan type : Progressive
Bits/(Pixel*Frame) : 0.165
Stream size : 5.80 GiB (91%)
Language : English
Default : Yes
Forced : No
Color range : Limited
Color primaries : BT.709
Transfer characteristics : BT.709
Matrix coefficients : BT.709

Audio
ID : 2
Format : E-AC-3 JOC
Format/Info : Enhanced AC-3 with Joint Object Coding
Commercial name : Dolby Digital Plus with Dolby Atmos
Codec ID : A_EAC3
Duration : 1 h 41 min
Bit rate mode : Constant
Bit rate : 768 kb/s
Channel(s) : 6 channels
Channel layout : L R C LFE Ls Rs
Sampling rate : 48.0 kHz
Frame rate : 31.250 FPS (1536 SPF)
Compression mode : Lossy
Stream size : 555 MiB (9%)
Language : English
Service kind : Complete Main
Default : Yes
Forced : No
Complexity index : 16
Number of dynamic objects : 15
Bed channel count : 1 channel
Bed channel configuration : LFE

Text #1
ID : 3
Format : UTF-8
Codec ID : S_TEXT/UTF8
Codec ID/Info : UTF-8 Plain Text
Duration : 1 h 40 min
Bit rate : 101 b/s
Count of elements : 1591
Stream size : 74.6 KiB (0%)
Title : FOCS
Language : Russian
Default : Yes
Forced : No

Text #2
ID : 4
Format : UTF-8
Codec ID : S_TEXT/UTF8
Codec ID/Info : UTF-8 Plain Text
Duration : 1 h 39 min
Bit rate : 64 b/s
Count of elements : 1665
Stream size : 46.8 KiB (0%)
Language : English
Default : No
Forced : No

Text #3
ID : 5
Format : UTF-8
Codec ID : S_TEXT/UTF8
Codec ID/Info : UTF-8 Plain Text
Duration : 1 h 40 min
Bit rate : 96 b/s
Count of elements : 2266
Stream size : 70.9 KiB (0%)
Title : English-SDH
Language : English
Default : No
Forced : No

Text #4
ID : 6
Format : UTF-8
Codec ID : S_TEXT/UTF8
Codec ID/Info : UTF-8 Plain Text
Duration : 1 h 40 min
Bit rate : 63 b/s
Count of elements : 1536
Stream size : 46.8 KiB (0%)
Title : Latin America Spanish
Language : Spanish
Default : No
Forced : No


pic pic pic pic pic pic pic pic pic pic

Этот торрент недоступен для скачивания без регистрации, однако доступен по публичной magnet-ссылке (источники с публичных трекеров). Перед использованием ссылки прочтите, пожалуйста Пользовательское соглашение, а также как можно дольше оставайтесь на раздаче! Для того, чтобы скачать сам торрент-файл (который видит больше источников), а также для того, чтобы поблагодарить релизера, вам необходимо зарегистрироваться. Если регистрироваться лень - вы можете также попробовать скачать релиз по нашим партнерским ссылкам ниже. Кроме того, зарегистрированным пользователям не показывается всплывающая реклама при скачивании.

[underver.se].t200854.torrent
Трекер: Зарегистрирован   [ 27.02.2021 19:16 ]  
Статус: проверено (by 90ytr90 at 27.02.2021 20:59)
Поблагодарили: 1 человек
Тип торрента: публичный - доступные источники с открытых трекеров: 
Размер: 6.35 GB (занимает 1.45 DVDR, для записи нужно 2 болванки DVDR/RW)
 
 


Последний раз редактировалось: 90ytr90 (28.02.2021 13:38), всего редактировалось 3 раз(а)

cheloweck.dojdya Пол:Муж

27-Фев-2021 19:39

Нее...раньше лучше рисовали :no:

Яндекс.Метрика powered by Sphinx


В Н И М А Н И Е
Сайт не распространяет и не хранит электронные версии произведений, а лишь бесплатно и без коммерческой выгоды (не требуя взамен платы,
SMS и т.д.) предоставляет доступ к создаваемому пользователями каталогу ссылок на торрент-файлы, которые содержат только списки хеш-сумм.
Убедительная просьба с жалобами обращаться напрямую к пользователю, разместившему торрент файл.

Вверх