Loading...
Error

Последние тайны долины Царей / Valley of the Kings: The Lost Tombs (Катерина Туррони) [2021 г., документальный, история, HDTVRip] DVO + Original (Eng)

Статистика раздачи
Размер:  1.35 GB   |    Зарегистрирован:  1 год 5 месяцев   |    Скачан:  5 раз

Полного источника не было: 3 месяца 24 дня

Сидов:  0  |  0 KB/s  ]   Личеров:  0  |  0 KB/s  ]

* - сиды/пиры с внешних источников

   
 
Автор Сообщение

ARI71 Пол:Муж

03-Апр-2021 10:04

Последние тайны долины Царей / Valley of the Kings: The Lost Tombs


Год выпуска: 2021
Жанр: документальный, история, археология, египтология
Страна: Великобритания Blink Films
Режиссер: Катерина Туррони
Сюжет фильма:
Команда ведущих экспертов проводит раскопки в восточной и западной Долинах царей, чтобы открыть их последние тайны и составить подробную карту и являются хроникой крупнейших раскопок в Египте за 100 лет. Доктор Захи Хавасс исследует печально известную Долину царей в поисках сокровищ королевы Нефертити среди других бесценных артефактов из Нового Королевства.
Качество видео: HDTVRip

Продолжительность: 01:28:09
Формат: AVI
Видео: XviD, 720x400, 1786 kbps
Аудио #1: русский, двухголосый закадровый [профессиональный], AC3 2.0, 192 kbps
Аудио #2: английский, оригинал, AC3 2.0, 192 kbps

Код:

Общее Полное имя : P:\Downloads\Nová složka\Последние тайны долины Царей.XviD.HDTVRip.avi Формат : AVI Формат/Информация : Audio Video Interleave Профиль формата : OpenDML Размер файла : 1,35 Гбайт Продолжительность : 1 ч. 28 м. Общий поток : 2 189 Кбит/сек Программа кодирования : XviD4PSP 6.0 / 54.29.105 Видео Идентификатор : 0 Формат : MPEG-4 Visual Профиль формата : Advanced Просто@L5 Настройки формата : BVOP2 Параметр BVOP формата : 2 Параметр QPel формата : Нет Параметр GMC формата : Без точки перехода Параметр матрицы формата : Default (H.263) Идентификатор кодека : XVID Идентификатор кодека/Подсказка : XviD Продолжительность : 1 ч. 28 м. Битрейт : 1 786 Кбит/сек Ширина : 720 пикселей Высота : 400 пикселей Соотношение сторон : 16:9 Частота кадров : 25,000 кадров/сек Цветовое пространство : YUV Субдискретизация насыщенности : 4:2:0 Битовая глубина : 8 бит Тип развёртки : Прогрессивная Метод сжатия : С потерями Бит/(Пиксели*Кадры) : 0.248 Размер потока : 1,10 Гбайт (82%) Библиотека кодирования : XviD 64 Аудио #1 Идентификатор : 1 Формат : AC-3 Формат/Информация : Audio Coding 3 Коммерческое название : Dolby Digital Идентификатор кодека : 2000 Продолжительность : 1 ч. 28 м. Вид битрейта : Постоянный Битрейт : 192 Кбит/сек Каналы : 2 канала Channel layout : L R Частота : 48,0 КГц Частота кадров : 31,250 кадров/сек (1536 SPF) Битовая глубина : 16 бит Метод сжатия : С потерями Размер потока : 121 Мбайт (9%) Выравнивание : Соединение по промежуткам Продолжительность промежутка : 32 мс. (0,80 видеокадр) Заголовок : Stereo Service kind : Complete Main Аудио #2 Идентификатор : 2 Формат : AC-3 Формат/Информация : Audio Coding 3 Коммерческое название : Dolby Digital Идентификатор кодека : 2000 Продолжительность : 1 ч. 28 м. Вид битрейта : Постоянный Битрейт : 192 Кбит/сек Каналы : 2 канала Channel layout : L R Частота : 48,0 КГц Частота кадров : 31,250 кадров/сек (1536 SPF) Битовая глубина : 16 бит Метод сжатия : С потерями Размер потока : 121 Мбайт (9%) Выравнивание : Соединение по промежуткам Продолжительность промежутка : 32 мс. (0,80 видеокадр) Заголовок : Stereo Service kind : Complete Main

Этот торрент недоступен для скачивания без регистрации, однако доступен по публичной magnet-ссылке (источники с публичных трекеров). Перед использованием ссылки прочтите, пожалуйста Пользовательское соглашение, а также как можно дольше оставайтесь на раздаче! Для того, чтобы скачать сам торрент-файл (который видит больше источников), а также для того, чтобы поблагодарить релизера, вам необходимо зарегистрироваться. Если регистрироваться лень - вы можете также попробовать скачать релиз по нашим партнерским ссылкам ниже. Кроме того, зарегистрированным пользователям не показывается всплывающая реклама при скачивании.

[underver.se].t203551.torrent
Трекер: Зарегистрирован   [ 03.04.2021 10:04 ]  
Статус: проверено (by ARI71 at 03.04.2021 10:05)
Поблагодарили: пока никто не поблагодарил...
Тип торрента: публичный - доступные источники с открытых трекеров: 
Размер: 1.35 GB (занимает 0.31 DVDR, для записи нужно 1 болванка DVDR/RW)
 
 

Яндекс.Метрика powered by Sphinx


В Н И М А Н И Е
Сайт не распространяет и не хранит электронные версии произведений, а лишь бесплатно и без коммерческой выгоды (не требуя взамен платы,
SMS и т.д.) предоставляет доступ к создаваемому пользователями каталогу ссылок на торрент-файлы, которые содержат только списки хеш-сумм.
Убедительная просьба с жалобами обращаться напрямую к пользователю, разместившему торрент файл.

Вверх