Loading...
Error

(Progressive) Asgaerd – In The Realm Of Asgaerd (2010) [FLAC (Tracks+.cue), lossless]

Статистика раздачи
Размер:  216 MB   |    Зарегистрирован:  9 дней   |    Скачан:  1 раз

Полного источника не было: 3 часа

Сидов:  0  |  0 KB/s  ]   Личеров:  0  |  0 KB/s  ]

* - сиды/пиры с внешних источников

   
 
Автор Сообщение

Rsa2 Пол:Муж

04-Май-2021 10:29

Asgaerd – In The Realm Of Asgaerd

Жанр: Progressive
Год выпуска: 2010
Носитель: CD
Производитель: UK Esoteric Recordings – ECLEC 2209
Аудиокодек: FLAC
Тип рипа: Tracks+.cue
Битрейт: lossless
Продолжительность: 00:35:52

Треклист:

01 In The Realm Of Asgaerd
02 Friends
03 Town Crier
04 Austin Osmanspare
05 Children Of A New Born Age
06 Time
07 Lorraine
08 Starquest
Exact Audio Copy V1.5 from 20. February 2020 

EAC extraction logfile from 4. May 2021, 15:08

Asgaerd / In the Realm of Asgaerd

Used drive : HL-DT-STBD-RE BH16NS60 Adapter: 1 ID: 0

Read mode : Secure
Utilize accurate stream : Yes
Defeat audio cache : Yes
Make use of C2 pointers : No

Read offset correction : 6
Overread into Lead-In and Lead-Out : No
Fill up missing offset samples with silence : Yes
Delete leading and trailing silent blocks : No
Null samples used in CRC calculations : Yes
Used interface : Native Win32 interface for Win NT & 2000
Gap handling : Appended to previous track

Used output format : User Defined Encoder
Selected bitrate : 896 kBit/s
Quality : High
Add ID3 tag : No
Command line compressor : C:\Program Files (x86)\Exact Audio Copy\FLAC\FLAC.EXE
Additional command line options : -6 -V -T "ARTIST=%artist%" -T "TITLE=%title%" -T "ALBUM=%albumtitle%" -T "DATE=%year%" -T "TRACKNUMBER=%tracknr%" -T "GENRE=%genre%" -T "COMMENT=%comment%" -T "BAND=%albuminterpret%" -T "ALBUMARTIST=%albuminterpret%" -T "COMPOSER=%composer%" %haslyrics%--tag-from-file=LYRICS="%lyricsfile%"%haslyrics% -T "DISCNUMBER=%cdnumber%" -T "TOTALDISCS=%totalcds%" -T "TOTALTRACKS=%numtracks%" %hascover%--picture="%coverfile%"%hascover% %source% -o %dest%

TOC of the extracted CD

Track | Start | Length | Start sector | End sector
---------------------------------------------------------
1 | 0:00.00 | 4:27.55 | 0 | 20079
2 | 4:27.55 | 4:40.49 | 20080 | 41128
3 | 9:08.29 | 4:00.65 | 41129 | 59193
4 | 13:09.19 | 4:16.33 | 59194 | 78426
5 | 17:25.52 | 3:15.13 | 78427 | 93064
6 | 20:40.65 | 5:10.09 | 93065 | 116323
7 | 25:50.74 | 4:46.21 | 116324 | 137794
8 | 30:37.20 | 5:15.49 | 137795 | 161468

Track 1

Filename D:\Cinema\Asgaerd – In The Realm Of Asgaerd\01 In the Realm of Asgaerd.wav

Pre-gap length 0:00:02.00

Peak level 98.8 %
Extraction speed 1.3 X
Track quality 99.8 %
Test CRC 88B37BF2
Copy CRC 88B37BF2
Cannot be verified as accurate (confidence 5) [5EB79CA0], AccurateRip returned [3C5D6FB3] (AR v2)
Copy OK

Track 2

Filename D:\Cinema\Asgaerd – In The Realm Of Asgaerd\02 Friends.wav

Peak level 98.8 %
Extraction speed 1.9 X
Track quality 99.9 %
Test CRC 70656758
Copy CRC 70656758
Cannot be verified as accurate (confidence 5) [8A3E9809], AccurateRip returned [51B1DFE5] (AR v2)
Copy OK

Track 3

Filename D:\Cinema\Asgaerd – In The Realm Of Asgaerd\03 Town Crier.wav

Peak level 98.8 %
Extraction speed 3.3 X
Track quality 100.0 %
Test CRC 614269C0
Copy CRC 614269C0
Cannot be verified as accurate (confidence 5) [A01B3762], AccurateRip returned [6D7FB1F7] (AR v2)
Copy OK

Track 4

Filename D:\Cinema\Asgaerd – In The Realm Of Asgaerd\04 Austin Osmanspare.wav

Peak level 98.8 %
Extraction speed 3.6 X
Track quality 100.0 %
Test CRC 1922226D
Copy CRC 1922226D
Cannot be verified as accurate (confidence 5) [25F3A8E4], AccurateRip returned [F4AF9DE2] (AR v2)
Copy OK

Track 5

Filename D:\Cinema\Asgaerd – In The Realm Of Asgaerd\05 Children of a New Born Age.wav

Peak level 98.8 %
Extraction speed 2.9 X
Track quality 99.9 %
Test CRC 3301ADB7
Copy CRC 3301ADB7
Cannot be verified as accurate (confidence 5) [AF2502FA], AccurateRip returned [58E986B4] (AR v2)
Copy OK

Track 6

Filename D:\Cinema\Asgaerd – In The Realm Of Asgaerd\06 Time.wav

Peak level 98.8 %
Extraction speed 4.1 X
Track quality 100.0 %
Test CRC 18241E09
Copy CRC 18241E09
Cannot be verified as accurate (confidence 5) [8C4413E1], AccurateRip returned [E4FA807C] (AR v2)
Copy OK

Track 7

Filename D:\Cinema\Asgaerd – In The Realm Of Asgaerd\07 Lorraine.wav

Peak level 98.8 %
Extraction speed 4.4 X
Track quality 100.0 %
Test CRC EB27D4A0
Copy CRC EB27D4A0
Cannot be verified as accurate (confidence 5) [5DBC0266], AccurateRip returned [1AB6D381] (AR v2)
Copy OK

Track 8

Filename D:\Cinema\Asgaerd – In The Realm Of Asgaerd\08 Starquest.wav

Peak level 98.8 %
Extraction speed 4.5 X
Track quality 100.0 %
Test CRC F8BF2A8D
Copy CRC F8BF2A8D
Cannot be verified as accurate (confidence 5) [7DED8228], AccurateRip returned [CFEA40DD] (AR v2)
Copy OK

No tracks could be verified as accurate
You may have a different pressing from the one(s) in the database

No errors occurred

End of status report

---- CUETools DB Plugin V2.1.6

[CTDB TOCID: 33C6kRm7at5vUD2S9VtmAr6cSHQ-] found
Submit result: 33C6kRm7at5vUD2S9VtmAr6cSHQ- has been confirmed
Track | CTDB Status
1 | (13/13) Accurately ripped
2 | (13/13) Accurately ripped
3 | (13/13) Accurately ripped
4 | (13/13) Accurately ripped
5 | ( 2/13) Accurately ripped, or (11/13) differs in 538 samples @00:53:20,00:59:46-00:59:47,01:03:69,01:08:58-01:08:59,01:09:26,01:10:21,01:12:54,01:13:21,01:17:44-01:17:45,01:19:21-01:19:22,01:25:22-01:25:23,01:32:05-01:32:06,01:32:47-01:32:48,01:33:57-01:33:58,01:34:67-01:34:68,01:36:16-01:36:17,01:38:21-01:38:22,01:40:55,01:41:51,01:44:67
6 | (13/13) Accurately ripped
7 | (13/13) Accurately ripped
8 | (12/13) Accurately ripped
If you are sure that your rip contains errors, you can use CUETools to repair it.

==== Log checksum 9591002636B1C77A4326DB7DA03779422FD0364A2128C946958D65818BBC0D3E ====
REM GENRE "Symphonic Rock" 
REM DATE 2010
REM DISCID 65086808
REM COMMENT "ExactAudioCopy v1.5"
PERFORMER "Asgaerd"
TITLE "In the Realm of Asg.rd"
REM COMPOSER ""
FILE "01 In the Realm of Asg.rd.wav" WAVE
TRACK 01 AUDIO
TITLE "In the Realm of Asgaerd"
PERFORMER "Asgaerd"
REM COMPOSER ""
INDEX 01 00:00:00
FILE "02 Friends.wav" WAVE
TRACK 02 AUDIO
TITLE "Friends"
PERFORMER "Asgaerd"
REM COMPOSER ""
INDEX 01 00:00:00
FILE "03 Town Crier.wav" WAVE
TRACK 03 AUDIO
TITLE "Town Crier"
PERFORMER "Asgaerd"
REM COMPOSER ""
INDEX 01 00:00:00
FILE "04 Austin Osmanspare.wav" WAVE
TRACK 04 AUDIO
TITLE "Austin Osmanspare"
PERFORMER "Asgaerd"
REM COMPOSER ""
INDEX 01 00:00:00
FILE "05 Children of a New Born Age.wav" WAVE
TRACK 05 AUDIO
TITLE "Children of a New Born Age"
PERFORMER "Asgaerd"
REM COMPOSER ""
INDEX 01 00:00:00
FILE "06 Time.wav" WAVE
TRACK 06 AUDIO
TITLE "Time"
PERFORMER "Asgaerd"
REM COMPOSER ""
INDEX 01 00:00:00
FILE "07 Lorraine.wav" WAVE
TRACK 07 AUDIO
TITLE "Lorraine"
PERFORMER "Asgaerd"
REM COMPOSER ""
INDEX 01 00:00:00
FILE "08 Starquest.wav" WAVE
TRACK 08 AUDIO
TITLE "Starquest"
PERFORMER "Asgaerd"
REM COMPOSER ""
INDEX 01 00:00:00

Этот торрент недоступен для скачивания без регистрации, однако доступен по публичной magnet-ссылке (источники с публичных трекеров). Перед использованием ссылки прочтите, пожалуйста Пользовательское соглашение, а также как можно дольше оставайтесь на раздаче! Для того, чтобы скачать сам торрент-файл (который видит больше источников), а также для того, чтобы поблагодарить релизера, вам необходимо зарегистрироваться. Если регистрироваться лень - вы можете также попробовать скачать релиз по нашим партнерским ссылкам ниже. Кроме того, зарегистрированным пользователям не показывается всплывающая реклама при скачивании.

[underver.se].t206427.torrent
Трекер: Зарегистрирован   [ 04.05.2021 10:29 ]  

Статус: проверено (by Бишеп at 04.05.2021 12:46)
Поблагодарили: пока никто не поблагодарил...
Тип торрента: публичный - доступные источники с открытых трекеров: 
Размер: 216 MB (занимает 0,05 DVDR, для записи нужно 1 болванка DVDR/RW)
 
 
Похожие темы
Форум Тема Автор Торрент Отв. Посл. сооб.
Зарубежный Hard, Progressive, Soft, Melodic, AOR, Folk, Classic Rock (Progressive Rock) Pink Floyd - Echoes: The Best of Pink Floyd (2001) [iTunes AAC M4A, 256 kbps VBR] Web garry
0 | 1

1 | 6340

13

18.06.2009 21:26

Зарубежный Hard, Progressive, Soft, Melodic, AOR, Folk, Classic Rock (Progressive Rock) Liquid Blue Thursdays - Redacted Essays From Nowhere (2017) [MP3, 320 kbps CBR] Darkferse
0 | 0

0 | 1841

7

04.04.2017 15:21

Зарубежный Hard, Progressive, Soft, Melodic, AOR, Folk, Classic Rock (Progressive Rock) Family Free Rock - In Full Swing (2017) [MP3, 320 kbps CBR] Darkferse
0 | 0

0 | 1675

4

05.06.2017 09:20

Зарубежный Hard, Progressive, Soft, Melodic, AOR, Folk, Classic Rock (Progressive, Art-Rock) VA - The Many Faces of Pink Floyd: A Journey Through The Inner World of Pink Floyd (2013) (3CD) [MP3, 320 kbps CBR] saw444
1 | 0

3 | 3000

35

29.12.2013 06:14

Зарубежный Hard, Progressive, Soft, Melodic, AOR, Folk, Classic Rock (Progressive Rock) Asia - Gravitas [Deluxe Edition] (2014) [MP3 (tracks), 320 kbps] Jimmy
0 | 1

0 | 3260

21

22.03.2014 17:23

Зарубежный Hard, Progressive, Soft, Melodic, AOR, Folk, Classic Rock (Progressive Rock) Akrasy - Tsunami: Love (2016) [MP3, 320 kbps CBR] Darkferse
0 | 0

0 | 1856

5

11.12.2016 14:19

Зарубежный Hard, Progressive, Soft, Melodic, AOR, Folk, Classic Rock (Progressive Rock, Hard Rock) Chris Brockbank's Phantom MkV - Phantom (2017) [MP3, 320 kbps CBR] Darkferse
1 | 0

0 | 1671

3

05.06.2017 09:17

Зарубежный Hard, Progressive, Soft, Melodic, AOR, Folk, Classic Rock (Progressive Rock) Elephant Plaza - Momentum (2016) [MP3, 320 kbps CBR] IronMan
0 | 1

0 | 2056

5

26.06.2016 17:08

Зарубежный Hard, Progressive, Soft, Melodic, AOR, Folk, Classic Rock (Progressive Rock) The Watch - Seven (2017) [MP3, 320 kbps CBR] Darkferse
0 | 0

0 | 2195

6

29.05.2017 18:50

Зарубежный Hard, Progressive, Soft, Melodic, AOR, Folk, Classic Rock (Progressive Rock, Stoner Rock) Brieg Guerveno - Valgori (2016) [MP3, 320 kbps CBR] Darkferse
0 | 1

0 | 1697

2

09.01.2017 09:41


Яндекс.Метрика powered by Sphinx


В Н И М А Н И Е
Сайт не распространяет и не хранит электронные версии произведений, а лишь бесплатно и без коммерческой выгоды (не требуя взамен платы,
SMS и т.д.) предоставляет доступ к создаваемому пользователями каталогу ссылок на торрент-файлы, которые содержат только списки хеш-сумм.
Убедительная просьба с жалобами обращаться напрямую к пользователю, разместившему торрент файл.

Вверх