Loading...
Error

Анна / Anna / Сезон 1, серии 1-6 из 6 (Никколо Амманити) [2021 г., фантастика, драма, приключения, WEB-DL 1080p] MVO (Novamedia) + Original + Sub

Статистика раздачи
Размер:  11,24 GB   |    Зарегистрирован:  9 дней   |    Скачан:  5 раз
Сидов:  1  |  434 KB/s  ]   Личеров:  0  |  0 KB/s  ]

* - сиды/пиры с внешних источников

   
 
Автор Сообщение

makkol Пол:Муж

04-Май-2021 11:07

Анна / Anna


Год выпуска: 2021
Жанр: фантастика, драма, приключения
Производство: Италия , Франция , США [Sky Italia, Wildside, Arte France]
Режиссер: Никколо Амманити
В ролях: Джулия Драготто, Алессандро Пекорелла, Клара Трамонтано, Джованни Мавилья, Роберта Маттеи, Элена Льетти, Мириам Далмазио
Сюжет фильма:
Недалёкое будущее. Мир пострадал от страшной эпидемии, которая уничтожила всё население старше 14 лет. Юная Анна в одиночку заботится о своём младшем брате Асторе. Однажды случается непоправимое: мальчика похищает загадочное племя, называющее себя «Синие дети». Чтобы найти и спасти брата, Анна отправляется в опасное путешествие, в котором ей предстоит столкнуться с неожиданными испытаниями, принять непростые решения и многое понять про себя и реальность, в которой она живёт.

  • Мировая премьера: 23 апреля 2021
  • Российская премьера: 23 апреля 2021


Качество видео: WEB-DL 1080p

Продолжительность: 6 x ~00:50:00
Формат: MKV
Видео: MPEG-4 AVC, 1920x1080 (16:9), 25.000 fps, ~5000 kbps
Аудио #1: русский, профессиональный многоголосый закадровый (Novamedia), AC3 2.0, 48 kHz, 192 kbps
Аудио #2: итальянский, оригинал, AC3 2.0, 48 kHz, 192 kbps
Субтитры: русские (форс. вшитые), полные (отключаемые)

Релиз:

Код:

Общее
Уникальный идентификатор                 : 210359945496397339716823731385824360933 (0x9E41DA106CAB77809A7C3D3328F6B9E5)
Полное имя                               : Anna.S01.E01.2021.WEB-DL.1080p.ExKinoRay.mkv
Формат                                   : Matroska
Версия формата                           : Version 2
Размер файла                             : 1,51 Гбайт
Продолжительность                        : 44 м. 55 с.
Общий поток                              : 4 813 Кбит/сек
Дата кодирования                         : UTC 2021-04-30 13:19:33
Программа кодирования                    : mkvmerge v5.8.0 ('No Sleep / Pillow') built on Sep  2 2012 15:37:04
Библиотека кодирования                   : libebml v1.2.3 + libmatroska v1.3.0

Видео
Идентификатор                            : 1
Формат                                   : AVC
Формат/Информация                        : Advanced Video Codec
Профиль формата                          : [email protected]
Настройки формата                        : CABAC / 1 Ref Frames
Параметр CABAC формата                   : Да
Параметр RefFrames формата               : 1 кадр
Идентификатор кодека                     : V_MPEG4/ISO/AVC
Продолжительность                        : 44 м. 55 с.
Битрейт                                  : 4 333 Кбит/сек
Ширина                                   : 1 920 пикселей
Высота                                   : 1 080 пикселей
Соотношение сторон                       : 16:9
Режим частоты кадров                     : Постоянный
Частота кадров                           : 25,000 кадров/сек
Цветовое пространство                    : YUV
Субдискретизация насыщенности            : 4:2:0
Битовая глубина                          : 8 бит
Тип развёртки                            : Прогрессивная
Бит/(Пиксели*Кадры)                      : 0.084
Размер потока                            : 1,36 Гбайт (90%)
Язык                                     : Italian
Default                                  : Да
Forced                                   : Нет

Аудио #1
Идентификатор                            : 2
Формат                                   : AC-3
Формат/Информация                        : Audio Coding 3
Коммерческое название                    : Dolby Digital
Идентификатор кодека                     : A_AC3
Продолжительность                        : 44 м. 55 с.
Вид битрейта                             : Постоянный
Битрейт                                  : 192 Кбит/сек
Каналы                                   : 2 канала
Channel layout                           : L R
Частота                                  : 48,0 КГц
Частота кадров                           : 31,250 кадров/сек (1536 SPF)
Метод сжатия                             : С потерями
Размер потока                            : 61,7 Мбайт (4%)
Язык                                     : Russian
Service kind                             : Complete Main
Default                                  : Да
Forced                                   : Нет

Аудио #2
Идентификатор                            : 3
Формат                                   : AC-3
Формат/Информация                        : Audio Coding 3
Коммерческое название                    : Dolby Digital
Идентификатор кодека                     : A_AC3
Продолжительность                        : 44 м. 55 с.
Вид битрейта                             : Постоянный
Битрейт                                  : 192 Кбит/сек
Каналы                                   : 2 канала
Channel layout                           : L R
Частота                                  : 48,0 КГц
Частота кадров                           : 31,250 кадров/сек (1536 SPF)
Метод сжатия                             : С потерями
Размер потока                            : 61,7 Мбайт (4%)
Язык                                     : Italian
Service kind                             : Complete Main
Default                                  : Нет
Forced                                   : Нет

Текст
Идентификатор                            : 4
Формат                                   : UTF-8
Идентификатор кодека                     : S_TEXT/UTF8
Идентификатор кодека/Информация          : UTF-8 Plain Text
Язык                                     : Russian
Default                                  : Нет
Forced                                   : Нет

Этот торрент недоступен для скачивания без регистрации, однако доступен по публичной magnet-ссылке (источники с публичных трекеров). Перед использованием ссылки прочтите, пожалуйста Пользовательское соглашение, а также как можно дольше оставайтесь на раздаче! Для того, чтобы скачать сам торрент-файл (который видит больше источников), а также для того, чтобы поблагодарить релизера, вам необходимо зарегистрироваться. Если регистрироваться лень - вы можете также попробовать скачать релиз по нашим партнерским ссылкам ниже. Кроме того, зарегистрированным пользователям не показывается всплывающая реклама при скачивании.

[underver.se].t206431.torrent
Трекер: Зарегистрирован   [ 04.05.2021 11:07 ]  

Статус: проверено (by makkol at 04.05.2021 11:08)
Поблагодарили: пока никто не поблагодарил...
Тип торрента: публичный - доступные источники с открытых трекеров: 
Размер: 11,24 GB (занимает 2,57 DVDR, для записи нужно 3 болванки DVDR/RW)
 
 
Похожие темы
Форум Тема Автор Торрент Отв. Посл. сооб.
T Зарубежное кино [DVDRip, Low-Res HDRip, и т.д.] Анна / Anne (Джозеф Маццаферро / Joseph Mazzaferro) [2018 г., ужасы, WEBRip] MVO (Синема УС) 90ytr90
0 | 1

0 | 912

7

18.03.2018 11:06

T Зарубежное кино [DVDRip, Low-Res HDRip, и т.д.] Анна / Anna (Люк Бессон / Luc Besson) [2019 г., боевик, триллер, WEB-DLRip] [AMZN Version] MVO (HDRezka Studio) + hardsub (Eng) 90ytr90
7 | 0

0 | 2041

45

14.09.2019 17:18

Зарубежное кино [DVDRip, Low-Res HDRip, и т.д.] Анна / Anna (Люк Бессон / Luc Besson) [2019 г., боевик, триллер, BDRip-AVC] MVO (HDRezka Studio) + Original (Eng) + Sub (Eng) 90ytr90
1 | 0

0 | 1006

13

17.09.2019 18:38

Зарубежное кино [DVDRip, Low-Res HDRip, и т.д.] Анна / Anna (Люк Бессон) [2019 г., боевик, триллер, BDRip-AVC] Dub (iTunes) + MVO (HDRezka Studio) + Original (Eng) + Sub (Eng) 90ytr90
39 | 1

0 | 1044

34

20.09.2019 20:33

Зарубежное кино [DVDRip, Low-Res HDRip, и т.д.] Анна / Anna (Люк Бессон / Luc Besson) [2019 г., боевик, триллер, BDRip] [FRA Transfer] Dub (iTunes) 90ytr90
26 | 0

0 | 1333

35

13.11.2019 13:37

Зарубежное кино [DVDRip, Low-Res HDRip, и т.д.] Анна / Anna (Люк Бессон / Luc Besson) [2019 г., боевик, триллер, BDRip] [FRA Transfer] Dub (iTunes) 90ytr90
13 | 4

0 | 1246

18

13.11.2019 13:38

Зарубежные сериалы Анна / Anna / Сезон 1, серии 1-6 из 6 (Никколо Амманити) [2021 г., фантастика, драма, приключения, WEB-DLRip] MVO (Novamedia) makkol
11 | 4

0 | 187

9

04.05.2021 11:14

Зарубежное кино [DVD / HDDVD / BD / Remux] Анна / Anna (Люк Бессон / Luc Besson) [2019 г., боевик, триллер, BDRemux 1080p] MVO (HDRezka Studio) + Original (Eng) + Sub (Eng) 90ytr90
1 | 0

0 | 1034

12

17.09.2019 18:34

Зарубежное кино [DVD / HDDVD / BD / Remux] Анна / Anna (Люк Бессон) [2019 г., боевик, триллер, BDRemux 1080p] Dub (iTunes) + MVO (HDRezka Studio) + Original (Eng) + Sub (Eng) 90ytr90
1 | 2

0 | 882

12

20.09.2019 20:25

Зарубежное кино [DVD / HDDVD / BD / Remux] Анна / Anna (Люк Бессон / Luc Besson) [2019 г., боевик, триллер, BDRemux 1080p] [FRA Transfer] Dub (iTunes) + Original (Eng) + Sub (Eng) 90ytr90
1 | 0

0 | 1592

18

13.11.2019 14:16


Яндекс.Метрика powered by Sphinx


В Н И М А Н И Е
Сайт не распространяет и не хранит электронные версии произведений, а лишь бесплатно и без коммерческой выгоды (не требуя взамен платы,
SMS и т.д.) предоставляет доступ к создаваемому пользователями каталогу ссылок на торрент-файлы, которые содержат только списки хеш-сумм.
Убедительная просьба с жалобами обращаться напрямую к пользователю, разместившему торрент файл.

Вверх