Loading...
Error

Анна / Anna / Сезон 1, серии 1-6 из 6 (Никколо Амманити) [2021 г., фантастика, драма, приключения, WEB-DLRip] MVO (Novamedia)

Статистика раздачи
Размер:  4,09 GB   |    Зарегистрирован:  9 дней   |    Скачан:  9 раз

Полного источника не было: 1 день 14 часов

Сидов:  0  |  0 KB/s  ]   Личеров:  0  |  0 KB/s  ]

* - сиды/пиры с внешних источников

   
 
Автор Сообщение

makkol Пол:Муж

04-Май-2021 11:14

Анна / Anna


Год выпуска: 2021
Жанр: фантастика, драма, приключения
Производство: Италия , Франция , США [Sky Italia, Wildside, Arte France]
Режиссер: Никколо Амманити
В ролях: Джулия Драготто, Алессандро Пекорелла, Клара Трамонтано, Джованни Мавилья, Роберта Маттеи, Элена Льетти, Мириам Далмазио
Сюжет фильма:
Недалёкое будущее. Мир пострадал от страшной эпидемии, которая уничтожила всё население старше 14 лет. Юная Анна в одиночку заботится о своём младшем брате Асторе. Однажды случается непоправимое: мальчика похищает загадочное племя, называющее себя «Синие дети». Чтобы найти и спасти брата, Анна отправляется в опасное путешествие, в котором ей предстоит столкнуться с неожиданными испытаниями, принять непростые решения и многое понять про себя и реальность, в которой она живёт.

  • Мировая премьера: 23 апреля 2021
  • Российская премьера: 23 апреля 2021


Качество видео: WEB-DLRip

Продолжительность: 6 x ~00:50:00
Формат: AVI
Видео: XviD, 720x304 (2.35:1), 25.000 fps, ~1600 kbps
Аудио: русский, профессиональный многоголосый закадровый (Novamedia), AC3 2.0, 48 kHz, 192 kbps
Субтитры: русские (форс. вшитые)

Код:

Общее
Полное имя                               : Anna.S01E01.2021.WEB-DLRip.XviD.Novamedia.avi
Формат                                   : AVI
Формат/Информация                        : Audio Video Interleave
Размер файла                             : 568 Мбайт
Продолжительность                        : 44 м. 55 с.
Общий поток                              : 1766 Кбит/сек
Программа кодирования                    : Lavf58.29.100

Видео
Идентификатор                            : 0
Формат                                   : xvid
Идентификатор кодека                     : xvid
Продолжительность                        : 44 м. 55 с.
Битрейт                                  : 1564 Кбит/сек
Ширина                                   : 720 пикселей
Высота                                   : 304 пикселя
Соотношение сторон                       : 2,35:1
Частота кадров                           : 25,000 кадров/сек
Тип развёртки                            : Прогрессивная
Бит/(Пиксели*Кадры)                      : 0.286
Размер потока                            : 502 Мбайт (89%)

Аудио
Идентификатор                            : 1
Формат                                   : AC-3
Формат/Информация                        : Audio Coding 3
Коммерческое название                    : Dolby Digital
Идентификатор кодека                     : 2000
Продолжительность                        : 44 м. 55 с.
Вид битрейта                             : Постоянный
Битрейт                                  : 192 Кбит/сек
Каналы                                   : 2 канала
Channel layout                           : L R
Частота                                  : 48,0 КГц
Частота кадров                           : 31,250 кадров/сек (1536 SPF)
Битовая глубина                          : 16 бит
Метод сжатия                             : С потерями
Размер потока                            : 61,7 Мбайт (11%)
Выравнивание                             : Соединение по промежуткам
Продолжительность промежутка             : 32  мс. (0,80 видеокадр)
ServiceKind/String                       : Complete Main

Этот торрент недоступен для скачивания без регистрации, однако доступен по публичной magnet-ссылке (источники с публичных трекеров). Перед использованием ссылки прочтите, пожалуйста Пользовательское соглашение, а также как можно дольше оставайтесь на раздаче! Для того, чтобы скачать сам торрент-файл (который видит больше источников), а также для того, чтобы поблагодарить релизера, вам необходимо зарегистрироваться. Если регистрироваться лень - вы можете также попробовать скачать релиз по нашим партнерским ссылкам ниже. Кроме того, зарегистрированным пользователям не показывается всплывающая реклама при скачивании.

[underver.se].t206432.torrent
Трекер: Зарегистрирован   [ 04.05.2021 11:14 ]  

Статус: проверено (by makkol at 04.05.2021 11:15)
Поблагодарили: пока никто не поблагодарил...
Тип торрента: публичный - доступные источники с открытых трекеров: 
Размер: 4,09 GB (занимает 0,93 DVDR, для записи нужно 1 болванка DVDR/RW)
 
 
Похожие темы
Форум Тема Автор Торрент Отв. Посл. сооб.
T Зарубежное кино [DVDRip, Low-Res HDRip, и т.д.] Анна / Anne (Джозеф Маццаферро / Joseph Mazzaferro) [2018 г., ужасы, WEBRip] MVO (Синема УС) 90ytr90
0 | 1

0 | 912

7

18.03.2018 11:06

T Зарубежное кино [DVDRip, Low-Res HDRip, и т.д.] Анна / Anna (Люк Бессон / Luc Besson) [2019 г., боевик, триллер, WEB-DLRip] [AMZN Version] MVO (HDRezka Studio) + hardsub (Eng) 90ytr90
7 | 0

0 | 2041

45

14.09.2019 17:18

Зарубежное кино [DVDRip, Low-Res HDRip, и т.д.] Анна / Anna (Люк Бессон / Luc Besson) [2019 г., боевик, триллер, BDRip-AVC] MVO (HDRezka Studio) + Original (Eng) + Sub (Eng) 90ytr90
1 | 0

0 | 1006

13

17.09.2019 18:38

Зарубежное кино [DVDRip, Low-Res HDRip, и т.д.] Анна / Anna (Люк Бессон) [2019 г., боевик, триллер, BDRip-AVC] Dub (iTunes) + MVO (HDRezka Studio) + Original (Eng) + Sub (Eng) 90ytr90
39 | 1

0 | 1044

34

20.09.2019 20:33

Зарубежное кино [DVDRip, Low-Res HDRip, и т.д.] Анна / Anna (Люк Бессон / Luc Besson) [2019 г., боевик, триллер, BDRip] [FRA Transfer] Dub (iTunes) 90ytr90
26 | 0

0 | 1333

35

13.11.2019 13:37

Зарубежное кино [DVDRip, Low-Res HDRip, и т.д.] Анна / Anna (Люк Бессон / Luc Besson) [2019 г., боевик, триллер, BDRip] [FRA Transfer] Dub (iTunes) 90ytr90
13 | 4

0 | 1246

18

13.11.2019 13:38

Зарубежное кино [DVD / HDDVD / BD / Remux] Анна / Anna (Люк Бессон / Luc Besson) [2019 г., боевик, триллер, BDRemux 1080p] MVO (HDRezka Studio) + Original (Eng) + Sub (Eng) 90ytr90
1 | 0

0 | 1034

12

17.09.2019 18:34

Зарубежное кино [DVD / HDDVD / BD / Remux] Анна / Anna (Люк Бессон) [2019 г., боевик, триллер, BDRemux 1080p] Dub (iTunes) + MVO (HDRezka Studio) + Original (Eng) + Sub (Eng) 90ytr90
1 | 2

0 | 882

12

20.09.2019 20:25

Зарубежное кино [DVD / HDDVD / BD / Remux] Анна / Anna (Люк Бессон / Luc Besson) [2019 г., боевик, триллер, BDRemux 1080p] [FRA Transfer] Dub (iTunes) + Original (Eng) + Sub (Eng) 90ytr90
1 | 0

0 | 1592

18

13.11.2019 14:16

Зарубежное кино [HDDVDRip / BDRip / WEB-DL / HDTV 1080/720р] Анна / Anna (Люк Бессон / Luc Besson) [2019 г., боевик, триллер, WEB-DL 1080p] [iTunes Version] MVO (HDRezka Studio) + Original (Eng) + Sub (Eng) 90ytr90
10 | 0

0 | 4349

67

14.09.2019 18:18


Яндекс.Метрика powered by Sphinx


В Н И М А Н И Е
Сайт не распространяет и не хранит электронные версии произведений, а лишь бесплатно и без коммерческой выгоды (не требуя взамен платы,
SMS и т.д.) предоставляет доступ к создаваемому пользователями каталогу ссылок на торрент-файлы, которые содержат только списки хеш-сумм.
Убедительная просьба с жалобами обращаться напрямую к пользователю, разместившему торрент файл.

Вверх