Loading...
Error

Сплин • Рок на Волге (МТС Live) [2020, Rock, WEB-DL, 1080p]

Статистика раздачи
Размер:  5.07 GB   |    Зарегистрирован:  1 год 4 месяца   |    Скачан:  1 раз

Полного источника не было: 8 месяцев

Сидов:  0  |  0 KB/s  ]   Личеров:  0  |  0 KB/s  ]

* - сиды/пиры с внешних источников

   
 
Автор Сообщение

cheloweck.dojdya Пол:Муж

20-Май-2021 21:10

Сплин
Рок на Волге

Жанр: Rock
Продолжительность: 01:20:52
Год выпуска: 2020
Качество: Web-DL
Разрешение видео/развертка: 1080p
Контейнер: MKV
Видео кодек: H.264
Аудио кодек: AAC
Видео: MPEG4 Video (H264) 1920x1080 25fps 8 790 kb/s
Аудио: AAC 48000Hz stereo 192 kb/s
 
General
Unique ID : 206657392087042971454878536015186452023 (0x9B78C41647436B605E9575E369CB5E37)
Complete name : J:\Сплин - Рок на Волге (МТС Live) 2020.mkv
Format : Matroska
Format version : Version 4
File size : 5.07 GiB
Duration : 1 h 20 min
Overall bit rate : 8 982 kb/s
Encoded date : UTC 2020-06-29 09:07:37
Writing application : mkvmerge v48.0.0 ('Fortress Around Your Heart') 64-bit
Writing library : libebml v1.4.0 + libmatroska v1.6.0

Video
ID : 1
Format : AVC
Format/Info : Advanced Video Codec
Format profile : [email protected]
Format settings : CABAC / 1 Ref Frames
Format settings, CABAC : Yes
Format settings, Reference fra : 1 frame
Format settings, GOP : M=1, N=50
Codec ID : V_MPEG4/ISO/AVC
Duration : 1 h 20 min
Bit rate : 8 790 kb/s
Width : 1 920 pixels
Height : 1 080 pixels
Display aspect ratio : 16:9
Frame rate mode : Constant
Frame rate : 25.000 FPS
Color space : YUV
Chroma subsampling : 4:2:0
Bit depth : 8 bits
Scan type : Progressive
Bits/(Pixel*Frame) : 0.170
Stream size : 4.97 GiB (98%)
Default : Yes
Forced : No

Audio
ID : 2
Format : AAC LC
Format/Info : Advanced Audio Codec Low Complexity
Codec ID : A_AAC-2
Duration : 1 h 20 min
Bit rate : 192 kb/s
Channel(s) : 2 channels
Channel layout : L R
Sampling rate : 48.0 kHz
Frame rate : 46.875 FPS (1024 SPF)
Compression mode : Lossy
Delay relative to video : 16 ms
Stream size : 110 MiB (2%)
Default : Yes
Forced : No

01. Воздушный шар
02. Всадник
03. Тайком
04. Праздник
05. Атом
06. I Love You
07. Пирамиды
08. Странная вещь
09. Мелькнула чья-то тень
10. Бонни и Клайд
11. Летела жизнь
12. Письмо
13. Мороз по коже
14. Новые люди
15. Танцуй
16. Выхода нет
17. Мое сердце


Мои раздачи

Этот торрент недоступен для скачивания без регистрации, однако доступен по публичной magnet-ссылке (источники с публичных трекеров). Перед использованием ссылки прочтите, пожалуйста Пользовательское соглашение, а также как можно дольше оставайтесь на раздаче! Для того, чтобы скачать сам торрент-файл (который видит больше источников), а также для того, чтобы поблагодарить релизера, вам необходимо зарегистрироваться. Если регистрироваться лень - вы можете также попробовать скачать релиз по нашим партнерским ссылкам ниже. Кроме того, зарегистрированным пользователям не показывается всплывающая реклама при скачивании.

[underver.se].t207959.torrent
Трекер: Зарегистрирован   [ 20.05.2021 21:10 ]  
Статус: проверено (by cheloweck.dojdya at 20.05.2021 21:17)
Поблагодарили: пока никто не поблагодарил...
Тип торрента: публичный - доступные источники с открытых трекеров: 
Размер: 5.07 GB (занимает 1.16 DVDR, для записи нужно 2 болванки DVDR/RW)
 
 


Последний раз редактировалось: cheloweck.dojdya (20.05.2021 21:25), всего редактировалось 1 раз

cheloweck.dojdya Пол:Муж

20-Май-2021 21:11

Сиды есть! Качаем спокойно и не смотрим на нули! :D

Яндекс.Метрика powered by Sphinx


В Н И М А Н И Е
Сайт не распространяет и не хранит электронные версии произведений, а лишь бесплатно и без коммерческой выгоды (не требуя взамен платы,
SMS и т.д.) предоставляет доступ к создаваемому пользователями каталогу ссылок на торрент-файлы, которые содержат только списки хеш-сумм.
Убедительная просьба с жалобами обращаться напрямую к пользователю, разместившему торрент файл.

Вверх