Loading...
Error

(Euro House, Eurodance) [CDM] Garcia - Vamonos - 1996, FLAC (image+.cue), lossless

Статистика раздачи
Размер:  200 MB   |    Зарегистрирован:  1 год 4 месяца   |    Скачан:  1 раз

Полного источника не было: 8 месяцев

Сидов:  0  |  0 KB/s  ]   Личеров:  0  |  0 KB/s  ]

* - сиды/пиры с внешних источников

   
 
Автор Сообщение

cheloweck.dojdya Пол:Муж

23-Май-2021 09:05

Garcia / Vamonos (Hey Chico Are You Ready)




Жанр: Euro House, Eurodance
Носитель: CDM
Страна-производитель диска (релиза): Europe
Год издания: 1996
Издатель (лейбл): Maad Records
Номер по каталогу: 0630 15139-2
Аудиокодек: FLAC (*.flac)
Тип рипа: image+.cue
Продолжительность: 00:27:49.
Наличие сканов в содержимом раздачи: да
01. Vamonos (Hey Chico Are You Ready) (Single Mix) 3:51
02. Vamonos (Hey Chico Are You Ready) (Extended Mix) 6:13
03. Vamonos (Hey Chico Are You Ready) (Salsa House Mix) 5:43
04. Vamonos (Hey Chico Are You Ready) (Amnesia Hard Mix) 5:06
05. Vamonos (Hey Chico Are You Ready) (Frank's House Mix) Remix-Frank 6:18
 
Exact Audio Copy V1.6 from 23. October 2020

Отчёт EAC об извлечении, выполненном 22. мая 2021, 2:19

Garcia / Vamonos (Hey Chico Are You Ready)

Дисковод: PIONEER DVD-RW DVR-S21 Adapter: 1 ID: 0

Режим чтения : Достоверность
Использование точного потока : Да
Отключение кэша аудио : Да
Использование указателей C2 : Нет

Коррекция смещения при чтении : 6
Способность читать области Lead-in и Lead-out : Нет
Заполнение пропущенных сэмплов тишиной : Да
Удаление блоков с тишиной в начале и конце : Нет
При вычислениях CRC использовались нулевые сэмплы : Да
Интерфейс : Встроенный Win32-интерфейс для Win NT/2000

Выходной формат : Пользовательский кодировщик
Выбранный битрейт : 896 kBit/s
Качество : Высокий
Добавление ID3-тега : Нет
Утилита сжатия : C:\Program Files (x86)\Exact Audio Copy\Flac\flac.exe
Дополнительные параметры : -V -8 -T "Date=%year%" -T "Genre=%genre%" %source%

TOC извлечённого CD

Трек | Старт | Длительность | Начальный сектор | Конечный сектор
---------------------------------------------------------------------
1 | 0:00.00 | 3:57.55 | 0 | 17829
2 | 3:57.55 | 6:26.20 | 17830 | 46799
3 | 10:24.00 | 5:47.50 | 46800 | 72874
4 | 16:11.50 | 5:18.35 | 72875 | 96759
5 | 21:30.10 | 6:18.45 | 96760 | 125154

Характеристики диапазона извлечения и сообщения об ошибках

Выбранный диапазон

Имя файла D:\Program Files\Exact Audio Copy\Flac\Garcia - Vamonos (Hey Chico Are You Ready)(CDM)(1996)\Garcia - Vamonos (Hey Chico Are You Ready).wav

Пиковый уровень 97.7 %
Скорость извлечения 1.4 X
Качество диапазона 100.0 %
CRC теста 2E26AED6
CRC копии 2E26AED6
Копирование... OK

Ошибок не произошло

AccurateRip: сводка

Трек 1 : извлечено точно (достоверность 31) [42966265] (AR v2)
Трек 2 : извлечено точно (достоверность 31) [8FA40D3B] (AR v2)
Трек 3 : извлечено точно (достоверность 30) [1F173697] (AR v2)
Трек 4 : извлечено точно (достоверность 29) [77FE7C0F] (AR v2)
Трек 5 : извлечено точно (достоверность 29) [3C6B3556] (AR v2)

Все треки извлечены точно

Конец отчёта

---- CUETools DB Plugin V2.1.6

[CTDB TOCID: S7tdnDFj4EHLE..BGGnnWabVz.U-] found
Submit result: already submitted
Track | CTDB Status
1 | (108/108) Accurately ripped
2 | (108/108) Accurately ripped
3 | (107/108) Accurately ripped
4 | (108/108) Accurately ripped
5 | (106/108) Accurately ripped

==== Контрольная сумма отчёта 7DEF079EF685A9DE7B7FB7692BC42DE8AE2CAF93F15778F5D1EFC1C13FBD5EE9 ====
 
REM GENRE "Euro-House, Eurodance"
REM DATE 1996
REM DISCID 3F068405
REM COMMENT "ExactAudioCopy v1.6"
PERFORMER "Garcia"
TITLE "Vamonos (Hey Chico Are You Ready)"
REM COMPOSER ""
FILE "Garcia - Vamonos (Hey Chico Are You Ready).flac" WAVE
TRACK 01 AUDIO
TITLE "Vamonos (Single Mix)"
PERFORMER "Garcia"
REM COMPOSER ""
INDEX 01 00:00:00
TRACK 02 AUDIO
TITLE "Vamonos (Extended Mix)"
PERFORMER "Garcia"
REM COMPOSER ""
INDEX 00 03:55:07
INDEX 01 03:57:55
TRACK 03 AUDIO
TITLE "Vamonos (Salsa House Mix)"
PERFORMER "Garcia"
REM COMPOSER ""
INDEX 00 10:21:30
INDEX 01 10:24:00
TRACK 04 AUDIO
TITLE "Vamonos (Amnesia Hard Mix)"
PERFORMER "Garcia"
REM COMPOSER ""
INDEX 00 16:08:72
INDEX 01 16:11:50
TRACK 05 AUDIO
TITLE "Vamonos (Frank's House Mix)"
PERFORMER "Garcia"
REM COMPOSER ""
INDEX 00 21:27:40
INDEX 01 21:30:10


Мои раздачи

Этот торрент недоступен для скачивания без регистрации, однако доступен по публичной magnet-ссылке (источники с публичных трекеров). Перед использованием ссылки прочтите, пожалуйста Пользовательское соглашение, а также как можно дольше оставайтесь на раздаче! Для того, чтобы скачать сам торрент-файл (который видит больше источников), а также для того, чтобы поблагодарить релизера, вам необходимо зарегистрироваться. Если регистрироваться лень - вы можете также попробовать скачать релиз по нашим партнерским ссылкам ниже. Кроме того, зарегистрированным пользователям не показывается всплывающая реклама при скачивании.

[underver.se].t208142.torrent
Трекер: Зарегистрирован   [ 23.05.2021 09:05 ]  
Статус: проверено (by cheloweck.dojdya at 23.05.2021 09:05)
Поблагодарили: пока никто не поблагодарил...
Тип торрента: публичный - доступные источники с открытых трекеров: 
Размер: 200 MB (занимает 0.04 DVDR, для записи нужно 1 болванка DVDR/RW)
 
 

cheloweck.dojdya Пол:Муж

23-Май-2021 09:08


ссылка


Cидов мало,но они есть! Помогите скачать другим! :)

Если нужен релиз в МР3 - пишите в комментах,сделаем :)

Яндекс.Метрика powered by Sphinx


В Н И М А Н И Е
Сайт не распространяет и не хранит электронные версии произведений, а лишь бесплатно и без коммерческой выгоды (не требуя взамен платы,
SMS и т.д.) предоставляет доступ к создаваемому пользователями каталогу ссылок на торрент-файлы, которые содержат только списки хеш-сумм.
Убедительная просьба с жалобами обращаться напрямую к пользователю, разместившему торрент файл.

Вверх