Loading...
Error

VA - Imagine: John Lennon 75th Birthday Concert [2015, Rock, WEB-DL, 1080p]

Статистика раздачи
Размер:  7.13 GB   |    Зарегистрирован:  1 год 3 месяца   |    Скачан:  3 раза

Полного источника не было: 1 месяц 19 дней

Сидов:  0  |  0 KB/s  ]   Личеров:  0  |  0 KB/s  ]

* - сиды/пиры с внешних источников

   
 
Автор Сообщение

cheloweck.dojdya Пол:Муж

30-Май-2021 16:36

VA - Imagine: John Lennon 75th Birthday Concert


Жанр: Rock
Продолжительность: 01:46:31
Год выпуска: 2015

Описание: Концерт в честь 75-летия Джона Леннона запечатлел выступления с исторического события в театре на Мэдисон-сквер-Гарден, посвященного песням одного из самых значительных деятелей культуры 20-го века. Концертный фильм/аудиозаписи включают 20 выступлений "Битлз" и сольных классиков Алоэ Блакка, Эрика Черча, Шерил Кроу, Брэндона Флауэрса, Джона Фогерти, Питера Фрэмптона, Хуанеса, Криса Кристофферсона, Пэта Монахана, Тома Морелло, Вилли Нельсона, The Roots, Spoon + Криса Стэплтона.



Качество: WEB-DL
Разрешение видео/развертка: 1080p
Контейнер: MKV
Видео кодек: H.264
Аудио кодек: AC3
Видео: AVC, 1920x1080 (16:9), 25.000 fps, 9 360 kb/s
Аудио: E-AC-3, 48.0 kHz, 2 ch, 224 kb/s
01. Steven Tyler - Come Together
02. Brandon Flowers - Instant Karma
03. Chris Stapleton, Sheryl Crow, Brandon Flowers - Don't Let Me Down
04. Pat Monahan - Jealous Guy
05. Sheryl Crow - A Hard Day's Night
06. John Fogerty - In My Life
07. Aloe Blacc - Watching The Wheels
08. Juanes - Woman
09. Spoon - Hey Bulldog
10. Kris Kristofferson, Tom Morello - Working Class Hero
11. Peter Frampton, Sheryl Crow, Aloe Blacc - Happy Xmas (War Is Over)
12. John Fogerty - Give Peace A Chance
13. The Roots - Mother
14. Eric Church - Mind Games
15. Aloe Blacc - Steel And Glass
16. Peter Frampton - Norwegian Wood (This Bird Has Flown)
17. Chris Stapleton, Kris Kristofferson, Willie Nelson - You've Got To Hide Your Love Away
18. Tom Morello - Power To The People
19. Willie Nelson - Imagine
20. Full Ensemble - All You Need Is Love
 
General
Unique ID : 257565968460741619785904497388566482729 (0xC1C566B08B8A0F47FD4EA912A54A0F29)
Complete name : T:\web-dl\Imagine.John.Lennon.75th.Birthday.Concert.2015.1080p.AMZN.WEB-DL.DDP2.0.H.264-QOQ.mkv
Format : Matroska
Format version : Version 4
File size : 7.13 GiB
Duration : 1 h 46 min
Overall bit rate mode : Constant
Overall bit rate : 9 586 kb/s
Encoded date : UTC 2020-05-01 20:59:24
Writing application : mkvmerge v31.0.0 ('Dolores In A Shoestand') 64-bit
Writing library : libebml v1.3.6 + libmatroska v1.4.9

Video
ID : 1
Format : AVC
Format/Info : Advanced Video Codec
Format profile : [email protected]
Format settings : CABAC / 4 Ref Frames
Format settings, CABAC : Yes
Format settings, Reference : 4 frames
Codec ID : V_MPEG4/ISO/AVC
Duration : 1 h 46 min
Bit rate mode : Constant
Bit rate : 9 360 kb/s
Nominal bit rate : 10 000 kb/s
Width : 1 920 pixels
Height : 1 080 pixels
Display aspect ratio : 16:9
Frame rate mode : Constant
Frame rate : 25.000 FPS
Color space : YUV
Chroma subsampling : 4:2:0
Bit depth : 8 bits
Scan type : Progressive
Bits/(Pixel*Frame) : 0.181
Stream size : 6.96 GiB (98%)
Default : Yes
Forced : No
Color range : Limited
Color primaries : BT.709
Transfer characteristics : BT.709
Matrix coefficients : BT.709

Audio
ID : 2
Format : E-AC-3
Format/Info : Enhanced AC-3
Commercial name : Dolby Digital Plus
Codec ID : A_EAC3
Duration : 1 h 46 min
Bit rate mode : Constant
Bit rate : 224 kb/s
Channel(s) : 2 channels
Channel layout : L R
Sampling rate : 48.0 kHz
Frame rate : 31.250 FPS (1536 SPF)
Compression mode : Lossy
Stream size : 171 MiB (2%)
Language : English
Service kind : Complete Main
Default : Yes
Forced : No



Мои раздачи

Этот торрент недоступен для скачивания без регистрации, однако доступен по публичной magnet-ссылке (источники с публичных трекеров). Перед использованием ссылки прочтите, пожалуйста Пользовательское соглашение, а также как можно дольше оставайтесь на раздаче! Для того, чтобы скачать сам торрент-файл (который видит больше источников), а также для того, чтобы поблагодарить релизера, вам необходимо зарегистрироваться. Если регистрироваться лень - вы можете также попробовать скачать релиз по нашим партнерским ссылкам ниже. Кроме того, зарегистрированным пользователям не показывается всплывающая реклама при скачивании.

[underver.se].t209182.torrent
Трекер: Зарегистрирован   [ 30.05.2021 16:36 ]  
Статус: проверено (by cheloweck.dojdya at 30.05.2021 16:38)
Поблагодарили: пока никто не поблагодарил...
Тип торрента: публичный - доступные источники с открытых трекеров: 
Размер: 7.13 GB (занимает 1.63 DVDR, для записи нужно 2 болванки DVDR/RW)
 
 


Последний раз редактировалось: cheloweck.dojdya (30.05.2021 17:03), всего редактировалось 5 раз(а)

30-Май-2021 16:37

Топик был перенесен из форума Музыкальное Видео в форум Музыкальные HDTV


cheloweck.dojdya
 

cheloweck.dojdya Пол:Муж

30-Май-2021 16:40

Сиды есть! Качаем спокойно! :D

Памяти великого музыканта...

Яндекс.Метрика powered by Sphinx


В Н И М А Н И Е
Сайт не распространяет и не хранит электронные версии произведений, а лишь бесплатно и без коммерческой выгоды (не требуя взамен платы,
SMS и т.д.) предоставляет доступ к создаваемому пользователями каталогу ссылок на торрент-файлы, которые содержат только списки хеш-сумм.
Убедительная просьба с жалобами обращаться напрямую к пользователю, разместившему торрент файл.

Вверх