Loading...
Error

Mick Fleetwood And Friends - Celebrate The Music Of Peter Green And The Early Years Of Fleetwood Mac [2021, Classic Rock, Blues Rock, BDRip, 720p]

Статистика раздачи
Размер:  8.14 GB   |    Зарегистрирован:  1 год 3 месяца   |    Скачан:  2 раза

Полного источника не было: 14 дней

Сидов:  0  |  0 KB/s  ]   Личеров:  0  |  0 KB/s  ]

* - сиды/пиры с внешних источников

   
 
Автор Сообщение

Konin Пол:Муж

19-Июн-2021 15:43

Mick Fleetwood And Friends - Celebrate The Music Of Peter Green And The Early Years Of Fleetwood Mac

Жанр: Classic Rock, Blues Rock
Продолжительность: 02:24:51
Год выпуска: 2021

Треклист:
01. Rolling Man
02. Homework
03. Doctor Brown (feat. Billy Gibbons)
04. All Your Love (feat. John Mayall)
05. Rattlesnake Shake (feat. Billy Gibbons & Steven Tyler)
06. Stop Messin' Round (feat. Christine McVie)
07. Looking For Somebody (feat. Christine McVie)
08. Sandy Mary
09. Love That Burns
10. The World Keep Turning (feat. Noel Gallagher)
11. Like Crying (feat. Noel Gallagher)
12. No Place To Go
13. Station Man (feat. Pete Townshend)
14. Man Of The World (feat. Neil Finn)
15. Oh Well (Pt.1) (feat. Billy Gibbons & Steven Tyler)
16. Oh Well (Pt.2) (feat. David Gilmour)
17. Need Your Love So Bad
18. Black Magic Woman
19. The Sky Is Crying (feat. Jeremy Spencer)
20. I Can't Hold Out (feat. Jeremy Spencer)
21. The Green Manalishi (With The Two Prong Crown) (feat. Billy Gibbons & Kirk Hammett)
22. Albatross (feat. David Gilmour)
23. Shake Your Moneymaker

Качество: BDRip
Разрешение видео/развертка: 720p
Контейнер: MKV
Видео кодек: H.264
Аудио кодек: DTS, FLAC
Видео: AVC, 1280x720 (16:9), 23.976 fps, 5 000 kb/s
Аудио#1: DTS, 48.0 kHz, 6 ch, 1 509 kb/s
Аудио#2: FLAC, 48.0 kHz, 2 ch, 1 535 kb/s
[Information] [03.05.2021 14:50:55] Standard error stream 
-[Information] [03.05.2021 14:52:05] y4m [info]: 1280x720p 1:1 @ 24000/1001 fps (cfr)
-[Information] [03.05.2021 14:52:05] x264 [info]: using SAR=1/1
-[Information] [03.05.2021 14:52:05] x264 [info]: using cpu capabilities: MMX2 SSE2Fast SSSE3 SSE4.2 AVX FMA3 BMI2 AVX2
-[Information] [03.05.2021 14:52:05] x264 [info]: profile Progressive High, level 4.1, 4:2:0, 8-bit
-[Information] [03.05.2021 18:08:42] x264 [info]: frame I:1470 Avg QP:15.97 size:139611
-[Information] [03.05.2021 18:08:42] x264 [info]: frame P:45413 Avg QP:18.47 size: 48044
-[Information] [03.05.2021 18:08:42] x264 [info]: frame B:161507 Avg QP:20.41 size: 18853
-[Information] [03.05.2021 18:08:42] x264 [info]: consecutive B-frames: 1.8% 2.4% 9.9% 16.3% 18.9% 46.7% 2.8% 0.4% 0.3% 0.4%
-[Information] [03.05.2021 18:08:42] x264 [info]: mb I I16..4: 8.9% 75.7% 15.4%
-[Information] [03.05.2021 18:08:42] x264 [info]: mb P I16..4: 0.3% 10.9% 1.0% P16..4: 30.9% 40.0% 12.6% 1.6% 0.1% skip: 2.6%
-[Information] [03.05.2021 18:08:42] x264 [info]: mb B I16..4: 0.0% 0.8% 0.1% B16..8: 43.2% 22.9% 3.5% direct: 6.9% skip:22.7% L0:45.6% L1:44.3% BI:10.1%
-[Information] [03.05.2021 18:08:42] x264 [info]: 8x8 transform intra:87.0% inter:61.3%
-[Information] [03.05.2021 18:08:42] x264 [info]: direct mvs spatial:99.1% temporal:0.9%
-[Information] [03.05.2021 18:08:42] x264 [info]: coded y,uvDC,uvAC intra: 95.4% 83.8% 53.5% inter: 34.8% 31.2% 2.7%
-[Information] [03.05.2021 18:08:42] x264 [info]: i16 v,h,dc,p: 14% 9% 18% 58%
-[Information] [03.05.2021 18:08:42] x264 [info]: i8 v,h,dc,ddl,ddr,vr,hd,vl,hu: 7% 5% 8% 11% 16% 14% 14% 12% 13%
-[Information] [03.05.2021 18:08:42] x264 [info]: i4 v,h,dc,ddl,ddr,vr,hd,vl,hu: 8% 6% 3% 10% 16% 16% 14% 12% 13%
-[Information] [03.05.2021 18:08:42] x264 [info]: i8c dc,h,v,p: 42% 22% 18% 18%
-[Information] [03.05.2021 18:08:42] x264 [info]: Weighted P-Frames: Y:16.6% UV:12.0%
-[Information] [03.05.2021 18:08:42] x264 [info]: ref P L0: 45.4% 10.3% 17.5% 7.3% 5.9% 4.3% 4.0% 2.4% 2.5% 0.3% 0.0%
-[Information] [03.05.2021 18:08:42] x264 [info]: ref B L0: 73.2% 11.5% 6.1% 3.2% 2.4% 1.9% 1.2% 0.4%
-[Information] [03.05.2021 18:08:42] x264 [info]: ref B L1: 94.5% 5.5%
-[Information] [03.05.2021 18:08:42] x264 [info]: kb/s:4999.71
-[Information] [03.05.2021 18:08:42] encoded 208390 frames, 17.66 fps, 4999.71 kb/s
General 
Unique ID : 216480271184265129892713661470682174989 (0xA2DC956B05C5F9D76E93AB0029F4D60D)
Complete name : D:\BDRip\Mick Fleetwood&Friends-Celebrate The Music Of Peter Green.BDRip720p.mkv
Format : Matroska
Format version : Version 4
File size : 8.14 GiB
Duration : 2 h 24 min
Overall bit rate mode : Variable
Overall bit rate : 8 046 kb/s
Movie name : Mick Fleetwood&Friends-Celebrate The Music Of Peter [email protected]*другой трекер*
Encoded date : UTC 2021-05-03 17:45:43
Writing application : mkvmerge v55.0.0 ('Waiting For Space') 64-bit
Writing library : libebml v1.4.2 + libmatroska v1.6.4

Video
ID : 1
Format : AVC
Format/Info : Advanced Video Codec
Format profile : [email protected]
Format settings : CABAC / 9 Ref Frames
Format settings, CABAC : Yes
Format settings, Reference : 9 frames
Codec ID : V_MPEG4/ISO/AVC
Duration : 2 h 24 min
Bit rate : 5 000 kb/s
Width : 1 280 pixels
Height : 720 pixels
Display aspect ratio : 16:9
Frame rate mode : Constant
Frame rate : 23.976 (24000/1001) FPS
Color space : YUV
Chroma subsampling : 4:2:0
Bit depth : 8 bits
Scan type : Progressive
Bits/(Pixel*Frame) : 0.226
Stream size : 5.06 GiB (62%)
Title : anbelk27 @ *другой трекер*
Writing library : x264 core 157 r2969 d4099dd
Encoding settings : cabac=1 / ref=9 / deblock=1:-3:-3 / analyse=0x3:0x133 / me=umh / subme=11 / psy=1 / psy_rd=1.13:0.07 / mixed_ref=1 / me_range=40 / chroma_me=1 / trellis=2 / 8x8dct=1 / cqm=0 / deadzone=21,11 / fast_pskip=1 / chroma_qp_offset=-3 / threads=12 / lookahead_threads=2 / sliced_threads=0 / nr=0 / decimate=1 / interlaced=0 / bluray_compat=0 / constrained_intra=0 / bframes=9 / b_pyramid=2 / b_adapt=2 / b_bias=0 / direct=3 / weightb=1 / open_gop=0 / weightp=2 / keyint=240 / keyint_min=23 / scenecut=40 / intra_refresh=0 / rc_lookahead=100 / rc=2pass / mbtree=0 / bitrate=5000 / ratetol=1.0 / qcomp=0.60 / qpmin=0 / qpmax=69 / qpstep=4 / cplxblur=20.0 / qblur=0.5 / vbv_maxrate=50000 / vbv_bufsize=62500 / nal_hrd=none / filler=0 / ip_ratio=1.40 / pb_ratio=1.30 / aq=1:1.00
Default : Yes
Forced : No

Audio #1
ID : 2
Format : DTS
Format/Info : Digital Theater Systems
Codec ID : A_DTS
Duration : 2 h 24 min
Bit rate mode : Constant
Bit rate : 1 509 kb/s
Channel(s) : 6 channels
Channel layout : C L R Ls Rs LFE
Sampling rate : 48.0 kHz
Frame rate : 93.750 FPS (512 SPF)
Bit depth : 24 bits
Compression mode : Lossy
Stream size : 1.53 GiB (19%)
Title : DTS 5.1 @ 24 bit
Default : Yes
Forced : No

Audio #2
ID : 3
Format : FLAC
Format/Info : Free Lossless Audio Codec
Codec ID : A_FLAC
Duration : 2 h 24 min
Bit rate mode : Variable
Bit rate : 1 535 kb/s
Channel(s) : 2 channels
Channel layout : L R
Sampling rate : 48.0 kHz
Frame rate : 11.719 FPS (4096 SPF)
Bit depth : 24 bits
Compression mode : Lossless
Stream size : 1.55 GiB (19%)
Title : FLAC 2.0 @ 24 bit
Writing library : libFLAC 1.2.1 (UTC 2007-09-17)
Default : No
Forced : No

Menu
00:00:00.000 : en: Intro
00:04:00.991 : en: 01. Rolling Man
00:08:01.690 : en: 02. Homework
00:12:14.567 : en: 03. Doctor Brown (feat. Billy Gibbons)
00:17:34.971 : en: 04. All Your Love (feat. John Mayall)
00:22:40.109 : en: 05. Rattlesnake Shake (feat. Billy Gibbons & Steven Tyler)
00:28:06.435 : en: 06. Stop Messin' Round (feat. Christine McVie)
00:32:49.301 : en: 07. Looking For Somebody (feat. Christine McVie)
00:37:36.004 : en: 08. Sandy Mary
00:44:03.432 : en: 09. Love That Burns
00:53:37.714 : en: 10. The World Keep Turning (feat. Noel Gallagher)
00:56:57.956 : en: 11. Like Crying (feat. Noel Gallagher)
00:59:46.124 : en: 12. No Place To Go
01:07:32.674 : en: 13. Station Man (feat. Pete Townshend)
01:15:21.350 : en: 14. Man Of The World (feat. Neil Finn)
01:18:58.692 : en: 15. Oh Well (Pt.1) (feat. Billy Gibbons & Steven Tyler)
01:23:19.620 : en: 16. Oh Well (Pt.2) (feat. David Gilmour)
01:30:02.147 : en: 17. Need Your Love So Bad
01:36:10.348 : en: 18. Black Magic Woman
01:45:26.695 : en: 19. The Sky Is Crying (feat. Jeremy Spencer)
01:51:27.556 : en: 20. I Can't Hold Out (feat. Jeremy Spencer)
01:57:45.558 : en: 21. The Green Manalishi (With The Two Prong Crown) (feat. Billy Gibbons & Kirk Hammett)
02:06:58.861 : en: 22. Albatross (feat. David Gilmour)
02:11:58.786 : en: 23. Shake Your Moneymaker
02:21:19.221 : en: Credits

Этот торрент недоступен для скачивания без регистрации, однако доступен по публичной magnet-ссылке (источники с публичных трекеров). Перед использованием ссылки прочтите, пожалуйста Пользовательское соглашение, а также как можно дольше оставайтесь на раздаче! Для того, чтобы скачать сам торрент-файл (который видит больше источников), а также для того, чтобы поблагодарить релизера, вам необходимо зарегистрироваться. Если регистрироваться лень - вы можете также попробовать скачать релиз по нашим партнерским ссылкам ниже. Кроме того, зарегистрированным пользователям не показывается всплывающая реклама при скачивании.

[underver.se].t211054.torrent
Трекер: Зарегистрирован   [ 19.06.2021 15:43 ]  
Статус: проверено (by Robbertta at 19.06.2021 17:02)
Поблагодарили: пока никто не поблагодарил...
Тип торрента: публичный - доступные источники с открытых трекеров: 
Размер: 8.14 GB (занимает 1.86 DVDR, для записи нужно 2 болванки DVDR/RW)
 
 

Яндекс.Метрика powered by Sphinx


В Н И М А Н И Е
Сайт не распространяет и не хранит электронные версии произведений, а лишь бесплатно и без коммерческой выгоды (не требуя взамен платы,
SMS и т.д.) предоставляет доступ к создаваемому пользователями каталогу ссылок на торрент-файлы, которые содержат только списки хеш-сумм.
Убедительная просьба с жалобами обращаться напрямую к пользователю, разместившему торрент файл.

Вверх