Loading...
Error

(Nu Disco, House, EDM) Ofenbach - Ofenbach (2019) EP [FLAC (Tracks+.Cue), Lossless]

Статистика раздачи
Размер:  144 MB   |    Зарегистрирован:  1 год 3 месяца   |    Скачан:  2 раза

Полного источника не было: 19 дней

Сидов:  0  |  0 KB/s  ]   Личеров:  0  |  0 KB/s  ]

* - сиды/пиры с внешних источников

   
 
Автор Сообщение

Бишеп Пол:Муж

21-Июн-2021 17:24

Ofenbach - Ofenbach (EP)

Жанр: Nu Disco, House, EDM
Год выпуска: 2019
Носитель: CD
Производитель диска: Warner Music France - 9029552785
Аудиокодек: FLAC
Тип рипа: Tracks+.CUE
Битрейт аудио: lossless
Продолжительность: 00:21:27


Треклист:
01. Katchi (02:32)
02. Rock It (02:26)
03. I Got Burned (Feat. Tim Rogers) (02:38)
04. Be Mine (02:42)
05. We Can Hide Out (03:01)
06. Feeling Good (Feat. Alexandre Joseph) (02:55)
07. Paradise (Feat. Benjamin Ingrosso) (02:35)
08. Terrified (Feat. Tyler Sjöström) (02:38)

Exact Audio Copy V1.3 from 2. September 2016 

EAC extraction logfile from 16. September 2019, 6:37

Ofenbach / Ofenbach

Used drive : ASUS SDRW-08U7M-U Adapter: 1 ID: 0

Read mode : Secure
Utilize accurate stream : Yes
Defeat audio cache : Yes
Make use of C2 pointers : No

Read offset correction : 6
Overread into Lead-In and Lead-Out : No
Fill up missing offset samples with silence : Yes
Delete leading and trailing silent blocks : No
Null samples used in CRC calculations : Yes
Used interface : Native Win32 interface for Win NT & 2000
Gap handling : Appended to previous track

Used output format : User Defined Encoder
Selected bitrate : 1024 kBit/s
Quality : High
Add ID3 tag : No
Command line compressor : C:\Program Files (x86)\Exact Audio Copy\Flac\flac.exe
Additional command line options : -8 -V -T "ARTIST=%artist%" -T "TITLE=%title%" -T "ALBUM=%albumtitle%" -T "DATE=%year%" -T "TRACKNUMBER=%tracknr%" -T "GENRE=%genre%" -T "PERFORMER=%albuminterpret%" -T "COMPOSER=%composer%" %haslyrics%--tag-from-file=LYRICS="%lyricsfile%"%haslyrics% -T "ALBUMARTIST=%albumartist%" -T "DISCNUMBER=%cdnumber%" -T "TOTALDISCS=%totalcds%" -T "TOTALTRACKS=%numtracks%" -T "COMMENT=%comment%" %source% -o %dest%

TOC of the extracted CD

Track | Start | Length | Start sector | End sector
---------------------------------------------------------
1 | 0:00.00 | 2:32.00 | 0 | 11399
2 | 2:32.00 | 2:25.58 | 11400 | 22332
3 | 4:57.58 | 2:38.00 | 22333 | 34182
4 | 7:35.58 | 2:41.54 | 34183 | 46311
5 | 10:17.37 | 3:01.04 | 46312 | 59890
6 | 13:18.41 | 2:54.60 | 59891 | 73000
7 | 16:13.26 | 2:35.36 | 73001 | 84661
8 | 18:48.62 | 2:37.72 | 84662 | 96508

Track 1

Filename C:\EAC\Ofenbach - Ofenbach - 2019 - FLAC - CD\01. Katchi.wav

Pre-gap length 0:00:02.00

Peak level 98.8 %
Extraction speed 1.0 X
Track quality 100.0 %
Test CRC 04CC70C5
Copy CRC 04CC70C5
Accurately ripped (confidence 1) [EFB8C3AB] (AR v2)
Copy OK

Track 2

Filename C:\EAC\Ofenbach - Ofenbach - 2019 - FLAC - CD\02. Rock It.wav

Peak level 98.4 %
Extraction speed 0.9 X
Track quality 99.9 %
Test CRC AC8D35DD
Copy CRC AC8D35DD
Accurately ripped (confidence 1) [34792137] (AR v2)
Copy OK

Track 3

Filename C:\EAC\Ofenbach - Ofenbach - 2019 - FLAC - CD\03. I Got Burned (Feat. Tim Rogers).wav

Peak level 98.8 %
Extraction speed 1.0 X
Track quality 99.9 %
Test CRC E08CF323
Copy CRC E08CF323
Accurately ripped (confidence 1) [1E5316C4] (AR v2)
Copy OK

Track 4

Filename C:\EAC\Ofenbach - Ofenbach - 2019 - FLAC - CD\04. Be Mine.wav

Peak level 98.9 %
Extraction speed 1.3 X
Track quality 100.0 %
Test CRC 5BE50391
Copy CRC 5BE50391
Accurately ripped (confidence 1) [102799CA] (AR v2)
Copy OK

Track 5

Filename C:\EAC\Ofenbach - Ofenbach - 2019 - FLAC - CD\05. We Can Hide Out.wav

Peak level 98.8 %
Extraction speed 1.4 X
Track quality 100.0 %
Test CRC 9708026D
Copy CRC 9708026D
Accurately ripped (confidence 1) [E204EC51] (AR v2)
Copy OK

Track 6

Filename C:\EAC\Ofenbach - Ofenbach - 2019 - FLAC - CD\06. Feeling Good (Feat. Alexandre Joseph).wav

Peak level 98.9 %
Extraction speed 1.4 X
Track quality 100.0 %
Test CRC 4714B4AE
Copy CRC 4714B4AE
Accurately ripped (confidence 1) [79055439] (AR v2)
Copy OK

Track 7

Filename C:\EAC\Ofenbach - Ofenbach - 2019 - FLAC - CD\07. Paradise (Feat. Benjamin Ingrosso).wav

Peak level 97.2 %
Extraction speed 1.5 X
Track quality 100.0 %
Test CRC 2312A89F
Copy CRC 2312A89F
Accurately ripped (confidence 1) [B01EBA2B] (AR v2)
Copy OK

Track 8

Filename C:\EAC\Ofenbach - Ofenbach - 2019 - FLAC - CD\08. Terrified (Feat. Tyler Sjöström).wav

Peak level 98.8 %
Extraction speed 1.5 X
Track quality 100.0 %
Test CRC 759A6F21
Copy CRC 759A6F21
Accurately ripped (confidence 1) [C70A8BF0] (AR v2)
Copy OK

All tracks accurately ripped

No errors occurred

End of status report

---- CUETools DB Plugin V2.1.6

[CTDB TOCID: C2kNEgSKmcsPDyPlX.Yvi.4STfI-] found
Submit result: C2kNEgSKmcsPDyPlX.Yvi.4STfI- has been confirmed
Track | CTDB Status
1 | (9/9) Accurately ripped
2 | (9/9) Accurately ripped
3 | (9/9) Accurately ripped
4 | (9/9) Accurately ripped
5 | (9/9) Accurately ripped
6 | (9/9) Accurately ripped
7 | (9/9) Accurately ripped
8 | (9/9) Accurately ripped

==== Log checksum 27CC5409829C6F342352488BDC0E1DA113327584EF76C251428E33AD20868B68 ====
REM GENRE "Electronic, House " 
REM DATE 2019
REM COMMENT " Warner Music France ‎– 9029552785"
PERFORMER "Ofenbach"
TITLE "Ofenbach"
FILE "01. Katchi.flac" WAVE
TRACK 01 AUDIO
PERFORMER "Ofenbach"
TITLE "Katchi"
INDEX 01 00:00:00
FILE "02. Rock It.flac" WAVE
TRACK 02 AUDIO
PERFORMER "Ofenbach"
TITLE "Rock It"
INDEX 01 00:00:00
FILE "03. I Got Burned (Feat. Tim Rogers).flac" WAVE
TRACK 03 AUDIO
PERFORMER "Ofenbach"
TITLE "I Got Burned (Feat. Tim Rogers)"
INDEX 01 00:00:00
FILE "04. Be Mine.flac" WAVE
TRACK 04 AUDIO
PERFORMER "Ofenbach"
TITLE "Be Mine"
INDEX 01 00:00:00
FILE "05. We Can Hide Out.flac" WAVE
TRACK 05 AUDIO
PERFORMER "Ofenbach"
TITLE "We Can Hide Out"
INDEX 01 00:00:00
FILE "06. Feeling Good (Feat. Alexandre Joseph).flac" WAVE
TRACK 06 AUDIO
PERFORMER "Ofenbach"
TITLE "Feeling Good (Feat. Alexandre Joseph)"
INDEX 01 00:00:00
FILE "07. Paradise (Feat. Benjamin Ingrosso).flac" WAVE
TRACK 07 AUDIO
PERFORMER "Ofenbach"
TITLE "Paradise (Feat. Benjamin Ingrosso)"
INDEX 01 00:00:00
FILE "08. Terrified (Feat. Tyler Sjöström).flac" WAVE
TRACK 08 AUDIO
PERFORMER "Ofenbach"
TITLE "Terrified (Feat. Tyler Sjöström)"
INDEX 01 00:00:00

Этот торрент недоступен для скачивания без регистрации, однако доступен по публичной magnet-ссылке (источники с публичных трекеров). Перед использованием ссылки прочтите, пожалуйста Пользовательское соглашение, а также как можно дольше оставайтесь на раздаче! Для того, чтобы скачать сам торрент-файл (который видит больше источников), а также для того, чтобы поблагодарить релизера, вам необходимо зарегистрироваться. Если регистрироваться лень - вы можете также попробовать скачать релиз по нашим партнерским ссылкам ниже. Кроме того, зарегистрированным пользователям не показывается всплывающая реклама при скачивании.

[underver.se].t211191.torrent
Трекер: Зарегистрирован   [ 21.06.2021 17:24 ]  
Статус: проверено (by Бишеп at 21.06.2021 17:24)
Поблагодарили: пока никто не поблагодарил...
Тип торрента: публичный - доступные источники с открытых трекеров: 
Размер: 144 MB (занимает 0.03 DVDR, для записи нужно 1 болванка DVDR/RW)
 
 

Яндекс.Метрика powered by Sphinx


В Н И М А Н И Е
Сайт не распространяет и не хранит электронные версии произведений, а лишь бесплатно и без коммерческой выгоды (не требуя взамен платы,
SMS и т.д.) предоставляет доступ к создаваемому пользователями каталогу ссылок на торрент-файлы, которые содержат только списки хеш-сумм.
Убедительная просьба с жалобами обращаться напрямую к пользователю, разместившему торрент файл.

Вверх