Loading...
Error

(Deep House, House, Dance Pop) Robin Schulz - IIII (2021) [FLAC (Tracks+.Cue), Lossless]

Статистика раздачи
Размер:  361 MB   |    Зарегистрирован:  1 год 3 месяца   |    Скачан:  8 раз

Полного источника не было: 10 часов

Сидов:  0  |  0 KB/s  ]   Личеров:  0  |  0 KB/s  ]

* - сиды/пиры с внешних источников

   
 
Автор Сообщение

Бишеп Пол:Муж

30-Июн-2021 06:03

Robin Schulz - IIII

Жанр: Deep House, House, Dance Pop
Год выпуска: 2021
Носитель: CD
Производитель диска: Warner Music Central Europe, Warner Music Group Germany Holding GmbH - 5054197-0941-7-0
Аудиокодек: FLAC
Тип рипа: Tracks+.CUE
Битрейт аудио: lossless
Продолжительность: 00:51:19


Треклист:
01. Intro (02:01)
02. In Your Eyes (feat. Alida) (03:28)
03. Speechless (feat. Erika Sirola) (03:29)
04. Live And Let Live (feat. Sam Martin) (03:15)
05. All We Got (feat. Kiddo) (03:10)
06. Alane (feat. Wes) (02:54)
07. Better With You (feat. Svrcina) (03:02)
08. All This Love (feat. Harlœ) (02:45)
09. One More Time (feat. Alida & Felix Jaehn) (03:19)
10. Make Me Fell The Night (feat. Tyler James Bellinger) (03:26)
11. It's Only For You (02:50)
12. Kill The Fire (feat. The Leonard) (03:05)
13. Dream (feat. Colour Your Mind) (03:11)
14. Rather Be Alone (feat. Nick Martin & Sam Martin) (02:52)
15. Float (03:29)
16. Feel Something (feat. Saygrace) (02:51)
17. Outro (02:12)

Exact Audio Copy V1.3 from 2. September 2016 

EAC extraction logfile from 15. May 2021, 18:20

Robin Schulz / IIII

Used drive : HL-DT-STBD-RE BH16NS55 Adapter: 1 ID: 0

Read mode : Secure
Utilize accurate stream : Yes
Defeat audio cache : Yes
Make use of C2 pointers : No

Read offset correction : 6
Overread into Lead-In and Lead-Out : No
Fill up missing offset samples with silence : Yes
Delete leading and trailing silent blocks : No
Null samples used in CRC calculations : Yes
Used interface : Native Win32 interface for Win NT & 2000
Gap handling : Appended to previous track

Used output format : User Defined Encoder
Selected bitrate : 1024 kBit/s
Quality : High
Add ID3 tag : No
Command line compressor : C:\Program Files (x86)\Exact Audio Copy\Flac\flac.exe
Additional command line options : -8 -V -T "ARTIST=%artist%" -T "TITLE=%title%" -T "ALBUM=%albumtitle%" -T "DATE=%year%" -T "TRACKNUMBER=%tracknr%" -T "GENRE=%genre%" -T "PERFORMER=%albuminterpret%" -T "COMPOSER=%composer%" %haslyrics%--tag-from-file=LYRICS="%lyricsfile%"%haslyrics% -T "ALBUMARTIST=%albumartist%" -T "DISCNUMBER=%cdnumber%" -T "TOTALDISCS=%totalcds%" -T "TOTALTRACKS=%numtracks%" -T "COMMENT=%comment%" %source% -o %dest%

TOC of the extracted CD

Track | Start | Length | Start sector | End sector
---------------------------------------------------------
1 | 0:00.00 | 2:01.63 | 0 | 9137
2 | 2:01.63 | 3:27.45 | 9138 | 24707
3 | 5:29.33 | 3:29.39 | 24708 | 40421
4 | 8:58.72 | 3:15.62 | 40422 | 55108
5 | 12:14.59 | 3:10.17 | 55109 | 69375
6 | 15:25.01 | 2:54.29 | 69376 | 82454
7 | 18:19.30 | 3:02.74 | 82455 | 96178
8 | 21:22.29 | 2:45.35 | 96179 | 108588
9 | 24:07.64 | 3:18.61 | 108589 | 123499
10 | 27:26.50 | 3:36.29 | 123500 | 139728
11 | 31:03.04 | 2:50.18 | 139729 | 152496
12 | 33:53.22 | 3:04.04 | 152497 | 166300
13 | 36:57.26 | 3:10.64 | 166301 | 180614
14 | 40:08.15 | 2:52.13 | 180615 | 193527
15 | 43:00.28 | 3:28.40 | 193528 | 209167
16 | 46:28.68 | 2:50.58 | 209168 | 221975
17 | 49:19.51 | 2:14.18 | 221976 | 232043

Track 1

Filename F:\#EAC wav+flac\#Trump\Robin Schulz - III\01. Robin Schulz - Intro.wav

Pre-gap length 0:00:02.00

Peak level 98.8 %
Extraction speed 2.8 X
Track quality 99.9 %
Test CRC 62FBE557
Copy CRC 62FBE557
Accurately ripped (confidence 2) [615BE256] (AR v2)
Copy OK

Track 2

Filename F:\#EAC wav+flac\#Trump\Robin Schulz - III\02. Robin Schulz Feat. Alida - In Your Eyes.wav

Peak level 98.6 %
Extraction speed 4.5 X
Track quality 100.0 %
Test CRC 76FB33A3
Copy CRC 76FB33A3
Accurately ripped (confidence 2) [0E4DA8B0] (AR v2)
Copy OK

Track 3

Filename F:\#EAC wav+flac\#Trump\Robin Schulz - III\03. Robin Schulz Feat. Erika Sirola - Speechless.wav

Peak level 98.8 %
Extraction speed 4.9 X
Track quality 100.0 %
Test CRC B57DBC66
Copy CRC B57DBC66
Accurately ripped (confidence 2) [10AED664] (AR v2)
Copy OK

Track 4

Filename F:\#EAC wav+flac\#Trump\Robin Schulz - III\04. Robin Schulz Feat. Sam Martin - Live And Let Live.wav

Peak level 98.8 %
Extraction speed 5.2 X
Track quality 100.0 %
Test CRC BCECB630
Copy CRC BCECB630
Accurately ripped (confidence 2) [3B9862A0] (AR v2)
Copy OK

Track 5

Filename F:\#EAC wav+flac\#Trump\Robin Schulz - III\05. Robin Schulz Feat. KIDDO - All We Got.wav

Pre-gap length 0:00:00.80

Peak level 98.8 %
Extraction speed 4.4 X
Track quality 99.9 %
Test CRC 2CF1F672
Copy CRC 2CF1F672
Accurately ripped (confidence 2) [FEC835E3] (AR v2)
Copy OK

Track 6

Filename F:\#EAC wav+flac\#Trump\Robin Schulz - III\06. Robin Schulz & Wes - Alane.wav

Peak level 98.8 %
Extraction speed 5.6 X
Track quality 100.0 %
Test CRC 16626633
Copy CRC 16626633
Accurately ripped (confidence 2) [9FB3528F] (AR v2)
Copy OK

Track 7

Filename F:\#EAC wav+flac\#Trump\Robin Schulz - III\07. Robin Schulz Feat. Svrcina - Better With You.wav

Peak level 98.8 %
Extraction speed 5.9 X
Track quality 100.0 %
Test CRC 29153615
Copy CRC 29153615
Accurately ripped (confidence 2) [6217954C] (AR v2)
Copy OK

Track 8

Filename F:\#EAC wav+flac\#Trump\Robin Schulz - III\08. Robin Schulz Feat. Harlœ - All This Love.wav

Pre-gap length 0:00:00.24

Peak level 98.8 %
Extraction speed 6.1 X
Track quality 100.0 %
Test CRC 92B7E9EB
Copy CRC 92B7E9EB
Accurately ripped (confidence 2) [7B85E0AB] (AR v2)
Copy OK

Track 9

Filename F:\#EAC wav+flac\#Trump\Robin Schulz - III\09. Robin Schulz & Felix Jaehn Feat. Alida - One More Time.wav

Pre-gap length 0:00:00.44

Peak level 98.8 %
Extraction speed 6.5 X
Track quality 100.0 %
Test CRC B004C491
Copy CRC B004C491
Accurately ripped (confidence 2) [89E2A0D3] (AR v2)
Copy OK

Track 10

Filename F:\#EAC wav+flac\#Trump\Robin Schulz - III\10. Robin Schulz Feat. Tyler James Bellinger - Make Me Feel The Night.wav

Peak level 98.8 %
Extraction speed 6.8 X
Track quality 100.0 %
Test CRC 814008EF
Copy CRC 814008EF
Accurately ripped (confidence 2) [D0FD06E4] (AR v2)
Copy OK

Track 11

Filename F:\#EAC wav+flac\#Trump\Robin Schulz - III\11. Robin Schulz - It’s Only For You.wav

Peak level 98.8 %
Extraction speed 6.8 X
Track quality 100.0 %
Test CRC 39AD9645
Copy CRC 39AD9645
Accurately ripped (confidence 2) [218DC9F3] (AR v2)
Copy OK

Track 12

Filename F:\#EAC wav+flac\#Trump\Robin Schulz - III\12. Robin Schulz Feat. The Leonard - Kill The Fire.wav

Peak level 98.8 %
Extraction speed 7.1 X
Track quality 100.0 %
Test CRC 6615ED84
Copy CRC 6615ED84
Accurately ripped (confidence 2) [62D5EF1C] (AR v2)
Copy OK

Track 13

Filename F:\#EAC wav+flac\#Trump\Robin Schulz - III\13. Robin Schulz Feat. Colour Your Mind - Dream.wav

Peak level 98.8 %
Extraction speed 7.3 X
Track quality 100.0 %
Test CRC 3F186BF0
Copy CRC 3F186BF0
Accurately ripped (confidence 2) [CC2AB288] (AR v2)
Copy OK

Track 14

Filename F:\#EAC wav+flac\#Trump\Robin Schulz - III\14. Robin Schulz, Nick Martin & Sam Martin - Rather Be Alone.wav

Peak level 98.8 %
Extraction speed 7.3 X
Track quality 100.0 %
Test CRC FB5667B8
Copy CRC FB5667B8
Accurately ripped (confidence 2) [E9AF232C] (AR v2)
Copy OK

Track 15

Filename F:\#EAC wav+flac\#Trump\Robin Schulz - III\15. Robin Schulz - Float.wav

Pre-gap length 0:00:00.10

Peak level 98.8 %
Extraction speed 7.8 X
Track quality 100.0 %
Test CRC 9F5C0ECA
Copy CRC 9F5C0ECA
Accurately ripped (confidence 2) [5D442272] (AR v2)
Copy OK

Track 16

Filename F:\#EAC wav+flac\#Trump\Robin Schulz - III\16. Robin Schulz Feat. Saygrace - Feel Something.wav

Peak level 98.8 %
Extraction speed 7.8 X
Track quality 100.0 %
Test CRC 30A0C4D3
Copy CRC 30A0C4D3
Accurately ripped (confidence 2) [C7CDD6F7] (AR v2)
Copy OK

Track 17

Filename F:\#EAC wav+flac\#Trump\Robin Schulz - III\17. Robin Schulz - Outro.wav

Pre-gap length 0:00:00.04

Peak level 98.8 %
Extraction speed 7.4 X
Track quality 100.0 %
Test CRC 4155B50C
Copy CRC 4155B50C
Accurately ripped (confidence 2) [60B27CDC] (AR v2)
Copy OK

All tracks accurately ripped

No errors occurred

End of status report

---- CUETools DB Plugin V2.1.6

[CTDB TOCID: qNWcFknX0nitCD4lqUWyR0AelJU-] found
Submit result: already submitted
Track | CTDB Status
1 | (16/16) Accurately ripped
2 | (16/16) Accurately ripped
3 | (16/16) Accurately ripped
4 | (16/16) Accurately ripped
5 | (16/16) Accurately ripped
6 | (16/16) Accurately ripped
7 | (16/16) Accurately ripped
8 | (16/16) Accurately ripped
9 | (16/16) Accurately ripped
10 | (16/16) Accurately ripped
11 | (16/16) Accurately ripped
12 | (16/16) Accurately ripped
13 | (16/16) Accurately ripped
14 | (16/16) Accurately ripped
15 | (16/16) Accurately ripped
16 | (16/16) Accurately ripped
17 | (16/16) Accurately ripped

==== Log checksum 617FD9298808EEE971DEEA25A677B25D52D4A288303743494658EFEC8B543C77 ====

------------------------------------------------------------

Exact Audio Copy V1.3 from 2. September 2016

EAC extraction logfile from 15. May 2021, 18:20

Robin Schulz / IIII

Used drive : HL-DT-STBD-RE BH16NS55 Adapter: 1 ID: 0

Read mode : Secure
Utilize accurate stream : Yes
Defeat audio cache : Yes
Make use of C2 pointers : No

Read offset correction : 6
Overread into Lead-In and Lead-Out : No
Fill up missing offset samples with silence : Yes
Delete leading and trailing silent blocks : No
Null samples used in CRC calculations : Yes
Used interface : Native Win32 interface for Win NT & 2000
Gap handling : Appended to previous track

Used output format : User Defined Encoder
Selected bitrate : 1024 kBit/s
Quality : High
Add ID3 tag : No
Command line compressor : C:\Program Files (x86)\Exact Audio Copy\Flac\flac.exe
Additional command line options : -8 -V -T "ARTIST=%artist%" -T "TITLE=%title%" -T "ALBUM=%albumtitle%" -T "DATE=%year%" -T "TRACKNUMBER=%tracknr%" -T "GENRE=%genre%" -T "PERFORMER=%albuminterpret%" -T "COMPOSER=%composer%" %haslyrics%--tag-from-file=LYRICS="%lyricsfile%"%haslyrics% -T "ALBUMARTIST=%albumartist%" -T "DISCNUMBER=%cdnumber%" -T "TOTALDISCS=%totalcds%" -T "TOTALTRACKS=%numtracks%" -T "COMMENT=%comment%" %source% -o %dest%

TOC of the extracted CD

Track | Start | Length | Start sector | End sector
---------------------------------------------------------
1 | 0:00.00 | 2:01.63 | 0 | 9137
2 | 2:01.63 | 3:27.45 | 9138 | 24707
3 | 5:29.33 | 3:29.39 | 24708 | 40421
4 | 8:58.72 | 3:15.62 | 40422 | 55108
5 | 12:14.59 | 3:10.17 | 55109 | 69375
6 | 15:25.01 | 2:54.29 | 69376 | 82454
7 | 18:19.30 | 3:02.74 | 82455 | 96178
8 | 21:22.29 | 2:45.35 | 96179 | 108588
9 | 24:07.64 | 3:18.61 | 108589 | 123499
10 | 27:26.50 | 3:36.29 | 123500 | 139728
11 | 31:03.04 | 2:50.18 | 139729 | 152496
12 | 33:53.22 | 3:04.04 | 152497 | 166300
13 | 36:57.26 | 3:10.64 | 166301 | 180614
14 | 40:08.15 | 2:52.13 | 180615 | 193527
15 | 43:00.28 | 3:28.40 | 193528 | 209167
16 | 46:28.68 | 2:50.58 | 209168 | 221975
17 | 49:19.51 | 2:14.18 | 221976 | 232043

Track 1

Filename F:\#EAC wav+flac\#Trump\Robin Schulz - III\01. Robin Schulz - Intro.wav

Pre-gap length 0:00:02.00

Peak level 98.8 %
Extraction speed 2.8 X
Track quality 99.9 %
Test CRC 62FBE557
Copy CRC 62FBE557
Accurately ripped (confidence 2) [615BE256] (AR v2)
Copy OK

Track 2

Filename F:\#EAC wav+flac\#Trump\Robin Schulz - III\02. Robin Schulz Feat. Alida - In Your Eyes.wav

Peak level 98.6 %
Extraction speed 4.5 X
Track quality 100.0 %
Test CRC 76FB33A3
Copy CRC 76FB33A3
Accurately ripped (confidence 2) [0E4DA8B0] (AR v2)
Copy OK

Track 3

Filename F:\#EAC wav+flac\#Trump\Robin Schulz - III\03. Robin Schulz Feat. Erika Sirola - Speechless.wav

Peak level 98.8 %
Extraction speed 4.9 X
Track quality 100.0 %
Test CRC B57DBC66
Copy CRC B57DBC66
Accurately ripped (confidence 2) [10AED664] (AR v2)
Copy OK

Track 4

Filename F:\#EAC wav+flac\#Trump\Robin Schulz - III\04. Robin Schulz Feat. Sam Martin - Live And Let Live.wav

Peak level 98.8 %
Extraction speed 5.2 X
Track quality 100.0 %
Test CRC BCECB630
Copy CRC BCECB630
Accurately ripped (confidence 2) [3B9862A0] (AR v2)
Copy OK

Track 5

Filename F:\#EAC wav+flac\#Trump\Robin Schulz - III\05. Robin Schulz Feat. KIDDO - All We Got.wav

Pre-gap length 0:00:00.80

Peak level 98.8 %
Extraction speed 4.4 X
Track quality 99.9 %
Test CRC 2CF1F672
Copy CRC 2CF1F672
Accurately ripped (confidence 2) [FEC835E3] (AR v2)
Copy OK

Track 6

Filename F:\#EAC wav+flac\#Trump\Robin Schulz - III\06. Robin Schulz & Wes - Alane.wav

Peak level 98.8 %
Extraction speed 5.6 X
Track quality 100.0 %
Test CRC 16626633
Copy CRC 16626633
Accurately ripped (confidence 2) [9FB3528F] (AR v2)
Copy OK

Track 7

Filename F:\#EAC wav+flac\#Trump\Robin Schulz - III\07. Robin Schulz Feat. Svrcina - Better With You.wav

Peak level 98.8 %
Extraction speed 5.9 X
Track quality 100.0 %
Test CRC 29153615
Copy CRC 29153615
Accurately ripped (confidence 2) [6217954C] (AR v2)
Copy OK

Track 8

Filename F:\#EAC wav+flac\#Trump\Robin Schulz - III\08. Robin Schulz Feat. Harlœ - All This Love.wav

Pre-gap length 0:00:00.24

Peak level 98.8 %
Extraction speed 6.1 X
Track quality 100.0 %
Test CRC 92B7E9EB
Copy CRC 92B7E9EB
Accurately ripped (confidence 2) [7B85E0AB] (AR v2)
Copy OK

Track 9

Filename F:\#EAC wav+flac\#Trump\Robin Schulz - III\09. Robin Schulz & Felix Jaehn Feat. Alida - One More Time.wav

Pre-gap length 0:00:00.44

Peak level 98.8 %
Extraction speed 6.5 X
Track quality 100.0 %
Test CRC B004C491
Copy CRC B004C491
Accurately ripped (confidence 2) [89E2A0D3] (AR v2)
Copy OK

Track 10

Filename F:\#EAC wav+flac\#Trump\Robin Schulz - III\10. Robin Schulz Feat. Tyler James Bellinger - Make Me Feel The Night.wav

Peak level 98.8 %
Extraction speed 6.8 X
Track quality 100.0 %
Test CRC 814008EF
Copy CRC 814008EF
Accurately ripped (confidence 2) [D0FD06E4] (AR v2)
Copy OK

Track 11

Filename F:\#EAC wav+flac\#Trump\Robin Schulz - III\11. Robin Schulz - It’s Only For You.wav

Peak level 98.8 %
Extraction speed 6.8 X
Track quality 100.0 %
Test CRC 39AD9645
Copy CRC 39AD9645
Accurately ripped (confidence 2) [218DC9F3] (AR v2)
Copy OK

Track 12

Filename F:\#EAC wav+flac\#Trump\Robin Schulz - III\12. Robin Schulz Feat. The Leonard - Kill The Fire.wav

Peak level 98.8 %
Extraction speed 7.1 X
Track quality 100.0 %
Test CRC 6615ED84
Copy CRC 6615ED84
Accurately ripped (confidence 2) [62D5EF1C] (AR v2)
Copy OK

Track 13

Filename F:\#EAC wav+flac\#Trump\Robin Schulz - III\13. Robin Schulz Feat. Colour Your Mind - Dream.wav

Peak level 98.8 %
Extraction speed 7.3 X
Track quality 100.0 %
Test CRC 3F186BF0
Copy CRC 3F186BF0
Accurately ripped (confidence 2) [CC2AB288] (AR v2)
Copy OK

Track 14

Filename F:\#EAC wav+flac\#Trump\Robin Schulz - III\14. Robin Schulz, Nick Martin & Sam Martin - Rather Be Alone.wav

Peak level 98.8 %
Extraction speed 7.3 X
Track quality 100.0 %
Test CRC FB5667B8
Copy CRC FB5667B8
Accurately ripped (confidence 2) [E9AF232C] (AR v2)
Copy OK

Track 15

Filename F:\#EAC wav+flac\#Trump\Robin Schulz - III\15. Robin Schulz - Float.wav

Pre-gap length 0:00:00.10

Peak level 98.8 %
Extraction speed 7.8 X
Track quality 100.0 %
Test CRC 9F5C0ECA
Copy CRC 9F5C0ECA
Accurately ripped (confidence 2) [5D442272] (AR v2)
Copy OK

Track 16

Filename F:\#EAC wav+flac\#Trump\Robin Schulz - III\16. Robin Schulz Feat. Saygrace - Feel Something.wav

Peak level 98.8 %
Extraction speed 7.8 X
Track quality 100.0 %
Test CRC 30A0C4D3
Copy CRC 30A0C4D3
Accurately ripped (confidence 2) [C7CDD6F7] (AR v2)
Copy OK

Track 17

Filename F:\#EAC wav+flac\#Trump\Robin Schulz - III\17. Robin Schulz - Outro.wav

Pre-gap length 0:00:00.04

Peak level 98.8 %
Extraction speed 7.4 X
Track quality 100.0 %
Test CRC 4155B50C
Copy CRC 4155B50C
Accurately ripped (confidence 2) [60B27CDC] (AR v2)
Copy OK

All tracks accurately ripped

No errors occurred

End of status report

---- CUETools DB Plugin V2.1.6

[CTDB TOCID: qNWcFknX0nitCD4lqUWyR0AelJU-] found
Submit result: already submitted
Track | CTDB Status
1 | (16/16) Accurately ripped
2 | (16/16) Accurately ripped
3 | (16/16) Accurately ripped
4 | (16/16) Accurately ripped
5 | (16/16) Accurately ripped
6 | (16/16) Accurately ripped
7 | (16/16) Accurately ripped
8 | (16/16) Accurately ripped
9 | (16/16) Accurately ripped
10 | (16/16) Accurately ripped
11 | (16/16) Accurately ripped
12 | (16/16) Accurately ripped
13 | (16/16) Accurately ripped
14 | (16/16) Accurately ripped
15 | (16/16) Accurately ripped
16 | (16/16) Accurately ripped
17 | (16/16) Accurately ripped

==== Log checksum 617FD9298808EEE971DEEA25A677B25D52D4A288303743494658EFEC8B543C77 ====
REM GENRE Miscellaneous 
REM DATE 2021
REM DISCID D90C1511
REM COMMENT "ExactAudioCopy v1.3"
PERFORMER "Robin Schulz"
TITLE "IIII"
REM COMPOSER ""
FILE "01. Robin Schulz - Intro.wav" WAVE
TRACK 01 AUDIO
TITLE "Intro"
PERFORMER "Robin Schulz"
REM COMPOSER ""
ISRC DEA622001243
INDEX 01 00:00:00
FILE "02. Robin Schulz Feat. Alida - In Your Eyes.wav" WAVE
TRACK 02 AUDIO
TITLE "In Your Eyes"
PERFORMER "Robin Schulz Feat. Alida"
REM COMPOSER ""
ISRC DEA621901341
INDEX 01 00:00:00
FILE "03. Robin Schulz Feat. Erika Sirola - Speechless.wav" WAVE
TRACK 03 AUDIO
TITLE "Speechless"
PERFORMER "Robin Schulz Feat. Erika Sirola"
REM COMPOSER ""
ISRC DEA621801721
INDEX 01 00:00:00
FILE "04. Robin Schulz Feat. Sam Martin - Live And Let Live.wav" WAVE
TRACK 04 AUDIO
TITLE "Live And Let Live"
PERFORMER "Robin Schulz Feat. Sam Martin"
REM COMPOSER ""
ISRC DEA622001258
INDEX 01 00:00:00
TRACK 05 AUDIO
TITLE "All We Got"
PERFORMER "Robin Schulz Feat. KIDDO"
REM COMPOSER ""
ISRC DEA622000934
INDEX 00 03:15:02
FILE "05. Robin Schulz Feat. KIDDO - All We Got.wav" WAVE
INDEX 01 00:00:00
FILE "06. Robin Schulz & Wes - Alane.wav" WAVE
TRACK 06 AUDIO
TITLE "Alane"
PERFORMER "Robin Schulz & Wes"
REM COMPOSER ""
ISRC DEA622000699
INDEX 01 00:00:00
FILE "07. Robin Schulz Feat. Svrcina - Better With You.wav" WAVE
TRACK 07 AUDIO
TITLE "Better With You"
PERFORMER "Robin Schulz Feat. Svrcina"
REM COMPOSER ""
ISRC DEA622001259
INDEX 01 00:00:00
TRACK 08 AUDIO
TITLE "All This Love"
PERFORMER "Robin Schulz Feat. Harlњ"
REM COMPOSER ""
ISRC DEA621900325
INDEX 00 03:02:56
FILE "08. Robin Schulz Feat. Harlњ - All This Love.wav" WAVE
INDEX 01 00:00:00
TRACK 09 AUDIO
TITLE "One More Time"
PERFORMER "Robin Schulz & Felix Jaehn Feat. Alida"
REM COMPOSER ""
ISRC DEA622001260
INDEX 00 02:45:02
FILE "09. Robin Schulz & Felix Jaehn Feat. Alida - One More Time.wav" WAVE
INDEX 01 00:00:00
FILE "10. Robin Schulz Feat. Tyler James Bellinger - Make Me Feel The Night.wav" WAVE
TRACK 10 AUDIO
TITLE "Make Me Feel The Night"
PERFORMER "Robin Schulz Feat. Tyler James Bellinger"
REM COMPOSER ""
ISRC DEA622001261
INDEX 01 00:00:00
FILE "11. Robin Schulz - It’s Only For You.wav" WAVE
TRACK 11 AUDIO
TITLE "It’s Only For You"
PERFORMER "Robin Schulz"
REM COMPOSER ""
ISRC DEA622001262
INDEX 01 00:00:00
FILE "12. Robin Schulz Feat. The Leonard - Kill The Fire.wav" WAVE
TRACK 12 AUDIO
TITLE "Kill The Fire"
PERFORMER "Robin Schulz Feat. The Leonard"
REM COMPOSER ""
ISRC DEA622001263
INDEX 01 00:00:00
FILE "13. Robin Schulz Feat. Colour Your Mind - Dream.wav" WAVE
TRACK 13 AUDIO
TITLE "Dream"
PERFORMER "Robin Schulz Feat. Colour Your Mind"
REM COMPOSER ""
ISRC DEA622001264
INDEX 01 00:00:00
FILE "14. Robin Schulz, Nick Martin & Sam Martin - Rather Be Alone.wav" WAVE
TRACK 14 AUDIO
TITLE "Rather Be Alone"
PERFORMER "Robin Schulz, Nick Martin & Sam Martin"
REM COMPOSER ""
ISRC DEA621900870
INDEX 01 00:00:00
TRACK 15 AUDIO
TITLE "Float"
PERFORMER "Robin Schulz"
REM COMPOSER ""
ISRC DEA622001265
INDEX 00 02:52:05
FILE "15. Robin Schulz - Float.wav" WAVE
INDEX 01 00:00:00
FILE "16. Robin Schulz Feat. Saygrace - Feel Something.wav" WAVE
TRACK 16 AUDIO
TITLE "Feel Something"
PERFORMER "Robin Schulz Feat. Saygrace"
REM COMPOSER ""
ISRC DEA622001266
INDEX 01 00:00:00
TRACK 17 AUDIO
TITLE "Outro"
PERFORMER "Robin Schulz"
REM COMPOSER ""
ISRC DEA622001267
INDEX 00 02:50:55
FILE "17. Robin Schulz - Outro.wav" WAVE
INDEX 01 00:00:00

Этот торрент недоступен для скачивания без регистрации, однако доступен по публичной magnet-ссылке (источники с публичных трекеров). Перед использованием ссылки прочтите, пожалуйста Пользовательское соглашение, а также как можно дольше оставайтесь на раздаче! Для того, чтобы скачать сам торрент-файл (который видит больше источников), а также для того, чтобы поблагодарить релизера, вам необходимо зарегистрироваться. Если регистрироваться лень - вы можете также попробовать скачать релиз по нашим партнерским ссылкам ниже. Кроме того, зарегистрированным пользователям не показывается всплывающая реклама при скачивании.

[underver.se].t212240.torrent
Трекер: Зарегистрирован   [ 30.06.2021 06:03 ]  
Статус: проверено (by Бишеп at 30.06.2021 06:03)
Поблагодарили: пока никто не поблагодарил...
Тип торрента: публичный - доступные источники с открытых трекеров: 
Размер: 361 MB (занимает 0.08 DVDR, для записи нужно 1 болванка DVDR/RW)
 
 

Яндекс.Метрика powered by Sphinx


В Н И М А Н И Е
Сайт не распространяет и не хранит электронные версии произведений, а лишь бесплатно и без коммерческой выгоды (не требуя взамен платы,
SMS и т.д.) предоставляет доступ к создаваемому пользователями каталогу ссылок на торрент-файлы, которые содержат только списки хеш-сумм.
Убедительная просьба с жалобами обращаться напрямую к пользователю, разместившему торрент файл.

Вверх