Loading...
Error

(Deep House, Tech House, Techno, Downtempo) Oliver Koletzki & Niko Schwind - Noordhoek (2018) [FLAC (Tracks+.Cue), Lossless]

Статистика раздачи
Размер:  518 MB   |    Зарегистрирован:  1 год 2 месяца   |    Скачан:  4 раза

Полного источника не было: 1 месяц 6 дней

Сидов:  0  |  0 KB/s  ]   Личеров:  0  |  0 KB/s  ]

* - сиды/пиры с внешних источников

   
 
Автор Сообщение

Бишеп Пол:Муж

06-Июл-2021 17:18

Oliver Koletzki & Niko Schwind - Noordhoek

Жанр: Deep House, Tech House, Techno, Downtempo
Год выпуска: 2018
Носитель: CD
Производитель диска: Stil Vor Talent - SVT 222 CD
Аудиокодек: FLAC
Тип рипа: Tracks+.CUE
Битрейт аудио: lossless
Продолжительность: 01:18:48


Треклист:
01. Early Pearl (05:39)
02. Subati (07:39)
03. Olura (06:56)
04. Wrong Is Right (07:03)
05. Kruda (03:43)
06. Noordhoek (07:34)
07. Kasai (07:00)
08. Camps Bay (08:13)
09. Mawensi (08:27)
10. The Flute Song (06:50)
11. Nimatek (06:38)
12. Kali Haze (03:06)

Exact Audio Copy V1.3 from 2. September 2016 

EAC extraction logfile from 20. August 2018, 21:55

Oliver Koletzki & Niko Schwind / Noordhoek

Used drive : HL-DT-STBD-RE WH16NS60 Adapter: 1 ID: 0

Read mode : Secure
Utilize accurate stream : Yes
Defeat audio cache : Yes
Make use of C2 pointers : No

Read offset correction : 6
Overread into Lead-In and Lead-Out : No
Fill up missing offset samples with silence : Yes
Delete leading and trailing silent blocks : No
Null samples used in CRC calculations : Yes
Used interface : Native Win32 interface for Win NT & 2000
Gap handling : Appended to previous track

Used output format : User Defined Encoder
Selected bitrate : 1024 kBit/s
Quality : High
Add ID3 tag : No
Command line compressor : C:\Program Files (x86)\Exact Audio Copy\FLAC\FLAC.EXE
Additional command line options : -8 -e -p -V -T "ARTIST=%artist%" -T "TITLE=%title%" -T "ALBUM=%albumtitle%" -T "DATE=%year%" -T "TRACKNUMBER=%tracknr%" -T "GENRE=%genre%" -T "COMMENT=%comment%" -T "BAND=%albuminterpret%" -T "ALBUMARTIST=%albuminterpret%" -T "PERFORMER=%albuminterpret%" -T "COMPOSER=%composer%" %haslyrics%--tag-from-file=LYRICS="%lyricsfile%"%haslyrics% -T "DISCNUMBER=%cdnumber%" -T "TOTALDISCS=%totalcds%" -T "TOTALTRACKS=%numtracks%" %hascover%--picture="%coverfile%"%hascover% %source% -o %dest%

TOC of the extracted CD

Track | Start | Length | Start sector | End sector
---------------------------------------------------------
1 | 0:00.00 | 5:38.56 | 0 | 25405
2 | 5:38.56 | 7:39.24 | 25406 | 59854
3 | 13:18.05 | 6:55.74 | 59855 | 91053
4 | 20:14.04 | 7:02.61 | 91054 | 122764
5 | 27:16.65 | 3:43.08 | 122765 | 139497
6 | 30:59.73 | 7:34.19 | 139498 | 173566
7 | 38:34.17 | 7:00.12 | 173567 | 205078
8 | 45:34.29 | 8:12.55 | 205079 | 242033
9 | 53:47.09 | 8:26.58 | 242034 | 280041
10 | 62:13.67 | 6:50.11 | 280042 | 310802
11 | 69:04.03 | 6:37.57 | 310803 | 340634
12 | 75:41.60 | 3:05.59 | 340635 | 354568

Track 1

Filename E:\Rips\EAC\Olivier Koletzki & Niko Schwind - 2018 - Noordhoek {SVT222CD} [CD-FLAC]\1.01 - Early Pearl.wav

Pre-gap length 0:00:02.00

Peak level 97.7 %
Extraction speed 5.4 X
Track quality 100.0 %
Test CRC D7977F5D
Copy CRC D7977F5D
Accurately ripped (confidence 1) [0C8B688B] (AR v2)
Copy OK

Track 2

Filename E:\Rips\EAC\Olivier Koletzki & Niko Schwind - 2018 - Noordhoek {SVT222CD} [CD-FLAC]\1.02 - Subati.wav

Pre-gap length 0:00:00.26

Peak level 97.8 %
Extraction speed 6.3 X
Track quality 100.0 %
Test CRC E6C82C1A
Copy CRC E6C82C1A
Accurately ripped (confidence 1) [85921183] (AR v2)
Copy OK

Track 3

Filename E:\Rips\EAC\Olivier Koletzki & Niko Schwind - 2018 - Noordhoek {SVT222CD} [CD-FLAC]\1.03 - Olura.wav

Pre-gap length 0:00:01.00

Peak level 97.7 %
Extraction speed 6.5 X
Track quality 99.9 %
Test CRC 8B49DDF1
Copy CRC 8B49DDF1
Accurately ripped (confidence 1) [10ECE44E] (AR v2)
Copy OK

Track 4

Filename E:\Rips\EAC\Olivier Koletzki & Niko Schwind - 2018 - Noordhoek {SVT222CD} [CD-FLAC]\1.04 - Wrong Is Right.wav

Pre-gap length 0:00:01.00

Peak level 98.4 %
Extraction speed 7.7 X
Track quality 100.0 %
Test CRC 9594940B
Copy CRC 9594940B
Accurately ripped (confidence 1) [573BC89F] (AR v2)
Copy OK

Track 5

Filename E:\Rips\EAC\Olivier Koletzki & Niko Schwind - 2018 - Noordhoek {SVT222CD} [CD-FLAC]\1.05 - Kruda.wav

Pre-gap length 0:00:01.00

Peak level 97.8 %
Extraction speed 6.7 X
Track quality 99.9 %
Test CRC 8353171B
Copy CRC 8353171B
Accurately ripped (confidence 1) [4642F3BB] (AR v2)
Copy OK

Track 6

Filename E:\Rips\EAC\Olivier Koletzki & Niko Schwind - 2018 - Noordhoek {SVT222CD} [CD-FLAC]\1.06 - Noordhoek.wav

Pre-gap length 0:00:01.00

Peak level 97.7 %
Extraction speed 8.7 X
Track quality 100.0 %
Test CRC FB8EAA72
Copy CRC FB8EAA72
Accurately ripped (confidence 1) [F0506CBB] (AR v2)
Copy OK

Track 7

Filename E:\Rips\EAC\Olivier Koletzki & Niko Schwind - 2018 - Noordhoek {SVT222CD} [CD-FLAC]\1.07 - Kasai.wav

Peak level 97.7 %
Extraction speed 9.1 X
Track quality 100.0 %
Test CRC 4799CCCE
Copy CRC 4799CCCE
Accurately ripped (confidence 1) [F472062A] (AR v2)
Copy OK

Track 8

Filename E:\Rips\EAC\Olivier Koletzki & Niko Schwind - 2018 - Noordhoek {SVT222CD} [CD-FLAC]\1.08 - Camps Bay.wav

Pre-gap length 0:00:01.00

Peak level 97.8 %
Extraction speed 9.8 X
Track quality 100.0 %
Test CRC 14BBC621
Copy CRC 14BBC621
Accurately ripped (confidence 1) [A649A602] (AR v2)
Copy OK

Track 9

Filename E:\Rips\EAC\Olivier Koletzki & Niko Schwind - 2018 - Noordhoek {SVT222CD} [CD-FLAC]\1.09 - Mawensi.wav

Pre-gap length 0:00:01.00

Peak level 97.8 %
Extraction speed 10.4 X
Track quality 100.0 %
Test CRC A050BB5D
Copy CRC A050BB5D
Accurately ripped (confidence 1) [E177F381] (AR v2)
Copy OK

Track 10

Filename E:\Rips\EAC\Olivier Koletzki & Niko Schwind - 2018 - Noordhoek {SVT222CD} [CD-FLAC]\1.10 - The Flute Song.wav

Pre-gap length 0:00:01.00

Peak level 97.7 %
Extraction speed 10.7 X
Track quality 100.0 %
Test CRC 08A49C76
Copy CRC 08A49C76
Accurately ripped (confidence 1) [1E5C8199] (AR v2)
Copy OK

Track 11

Filename E:\Rips\EAC\Olivier Koletzki & Niko Schwind - 2018 - Noordhoek {SVT222CD} [CD-FLAC]\1.11 - Nimatek.wav

Pre-gap length 0:00:01.00

Peak level 97.8 %
Extraction speed 10.3 X
Track quality 99.9 %
Test CRC 9C7CB0CE
Copy CRC 9C7CB0CE
Accurately ripped (confidence 1) [B54FE92F] (AR v2)
Copy OK

Track 12

Filename E:\Rips\EAC\Olivier Koletzki & Niko Schwind - 2018 - Noordhoek {SVT222CD} [CD-FLAC]\1.12 - Kali Haze.wav

Pre-gap length 0:00:01.00

Peak level 97.7 %
Extraction speed 10.3 X
Track quality 100.0 %
Test CRC DE0DF088
Copy CRC DE0DF088
Accurately ripped (confidence 1) [728F88F7] (AR v2)
Copy OK

All tracks accurately ripped

No errors occurred

End of status report

==== Log checksum D0BC7C1B4BCDC39B9389D55E24C7C126C7ABC05DBE942578793B39344D9281FF ====
REM GENRE "House" 
REM DATE 2018
TITLE "Noordhoek"
FILE "01 - Early Pearl.flac" WAVE
TRACK 01 AUDIO
PERFORMER "Oliver Koletzki & Niko Schwind"
TITLE "Early Pearl"
INDEX 01 00:00:00
FILE "02 - Subati.flac" WAVE
TRACK 02 AUDIO
PERFORMER "Oliver Koletzki & Niko Schwind"
TITLE "Subati"
INDEX 01 00:00:00
FILE "03 - Olura.flac" WAVE
TRACK 03 AUDIO
PERFORMER "Oliver Koletzki & Niko Schwind"
TITLE "Olura"
INDEX 01 00:00:00
FILE "04 - Wrong Is Right.flac" WAVE
TRACK 04 AUDIO
PERFORMER "Oliver Koletzki & Niko Schwind"
TITLE "Wrong Is Right"
INDEX 01 00:00:00
FILE "05 - Kruda.flac" WAVE
TRACK 05 AUDIO
PERFORMER "Oliver Koletzki & Niko Schwind"
TITLE "Kruda"
INDEX 01 00:00:00
FILE "06 - Noordhoek.flac" WAVE
TRACK 06 AUDIO
PERFORMER "Oliver Koletzki & Niko Schwind"
TITLE "Noordhoek"
INDEX 01 00:00:00
FILE "07 - Kasai.flac" WAVE
TRACK 07 AUDIO
PERFORMER "Oliver Koletzki & Niko Schwind"
TITLE "Kasai"
INDEX 01 00:00:00
FILE "08 - Camps Bay.flac" WAVE
TRACK 08 AUDIO
PERFORMER "Oliver Koletzki & Niko Schwind"
TITLE "Camps Bay"
INDEX 01 00:00:00
FILE "09 - Mawensi.flac" WAVE
TRACK 09 AUDIO
PERFORMER "Oliver Koletzki & Niko Schwind"
TITLE "Mawensi"
INDEX 01 00:00:00
FILE "10 - The Flute Song.flac" WAVE
TRACK 10 AUDIO
PERFORMER "Oliver Koletzki & Niko Schwind"
TITLE "The Flute Song"
INDEX 01 00:00:00
FILE "11 - Nimatek.flac" WAVE
TRACK 11 AUDIO
PERFORMER "Oliver Koletzki & Niko Schwind"
TITLE "Nimatek"
INDEX 01 00:00:00
FILE "12 - Kali Haze.flac" WAVE
TRACK 12 AUDIO
PERFORMER "Oliver Koletzki & Niko Schwind"
TITLE "Kali Haze"
INDEX 01 00:00:00

Этот торрент недоступен для скачивания без регистрации, однако доступен по публичной magnet-ссылке (источники с публичных трекеров). Перед использованием ссылки прочтите, пожалуйста Пользовательское соглашение, а также как можно дольше оставайтесь на раздаче! Для того, чтобы скачать сам торрент-файл (который видит больше источников), а также для того, чтобы поблагодарить релизера, вам необходимо зарегистрироваться. Если регистрироваться лень - вы можете также попробовать скачать релиз по нашим партнерским ссылкам ниже. Кроме того, зарегистрированным пользователям не показывается всплывающая реклама при скачивании.

[underver.se].t212717.torrent
Трекер: Зарегистрирован   [ 06.07.2021 17:18 ]  
Статус: проверено (by Бишеп at 06.07.2021 17:18)
Поблагодарили: пока никто не поблагодарил...
Тип торрента: публичный - доступные источники с открытых трекеров: 
Размер: 518 MB (занимает 0.12 DVDR, для записи нужно 1 болванка DVDR/RW)
 
 

Яндекс.Метрика powered by Sphinx


В Н И М А Н И Е
Сайт не распространяет и не хранит электронные версии произведений, а лишь бесплатно и без коммерческой выгоды (не требуя взамен платы,
SMS и т.д.) предоставляет доступ к создаваемому пользователями каталогу ссылок на торрент-файлы, которые содержат только списки хеш-сумм.
Убедительная просьба с жалобами обращаться напрямую к пользователю, разместившему торрент файл.

Вверх