Loading...
Error

(House, Downtempo, Deep House) dZihan & Kamien - Freaks & Icons (2000) [FLAC (Tracks+.Cue), Lossless]

Статистика раздачи
Размер:  434 MB   |    Зарегистрирован:  1 год 2 месяца   |    Скачан:  2 раза

Полного источника не было: 1 год 2 месяца

Сидов:  0  |  0 KB/s  ]   Личеров:  0  |  0 KB/s  ]

* - сиды/пиры с внешних источников

   
 
Автор Сообщение

Бишеп Пол:Муж

12-Июл-2021 14:36

dZihan & Kamien - Freaks & Icons

Жанр: House, Downtempo, Deep House
Год выпуска: 2000
Носитель: CD
Производитель диска: Six Degrees Records - 657036 1036-2
Аудиокодек: FLAC
Тип рипа: Tracks+.CUE
Битрейт аудио: lossless
Продолжительность: 01:10:25


Треклист:
01. After (07:27)
02. Dabudei (05:46)
03. Streets Of Istanbul (05:08)
04. Before (05:20)
05. Homebase (07:22)
06. I Guess She... (04:15)
07. Slowhand Hussein (05:26)
08. Just You & I (05:58)
09. Colores (03:29)
10. Ocean Air (05:25)
11. Smile (03:51)
12. Where Are We? (05:40)
13. Spacewater (05:18)

Exact Audio Copy V1.5 from 20. February 2020 

EAC extraction logfile from 20. May 2021, 15:20

dZihan & Kamien / Freaks & Icons

Used drive : Optiarc DVD RW AD-5260S Adapter: 0 ID: 0

Read mode : Secure
Utilize accurate stream : Yes
Defeat audio cache : Yes
Make use of C2 pointers : No

Read offset correction : 48
Overread into Lead-In and Lead-Out : No
Fill up missing offset samples with silence : Yes
Delete leading and trailing silent blocks : No
Null samples used in CRC calculations : Yes
Used interface : Installed external ASPI interface
Gap handling : Appended to previous track

Used output format : User Defined Encoder
Selected bitrate : 768 kBit/s
Quality : High
Add ID3 tag : No
Command line compressor : C:\Program Files (x86)\Exact Audio Copy\FLAC\FLAC.EXE
Additional command line options : -8 -V -T "TITLE=%title%" -T "ARTIST=%artist%" -T "ALBUMARTIST=%albumartist%" -T "ALBUM=%albumtitle%" -T "DATE=%year%" -T "TRACKNUMBER=%tracknr%" -T "TRACKTOTAL=%numtracks%" -T "GENRE=%genre%" -T "COMMENT=%comment%" -T "PERFORMER=%albuminterpret%" -T "COMPOSER=%composer%" %source% -o %dest%

TOC of the extracted CD

Track | Start | Length | Start sector | End sector
---------------------------------------------------------
1 | 0:00.00 | 7:26.59 | 0 | 33508
2 | 7:26.59 | 5:45.70 | 33509 | 59453
3 | 13:12.54 | 5:08.22 | 59454 | 82575
4 | 18:21.01 | 5:20.04 | 82576 | 106579
5 | 23:41.05 | 7:21.64 | 106580 | 139718
6 | 31:02.69 | 4:15.18 | 139719 | 158861
7 | 35:18.12 | 5:25.46 | 158862 | 183282
8 | 40:43.58 | 5:57.39 | 183283 | 210096
9 | 46:41.22 | 3:29.03 | 210097 | 225774
10 | 50:10.25 | 5:25.28 | 225775 | 250177
11 | 55:35.53 | 3:51.21 | 250178 | 267523
12 | 59:26.74 | 5:39.72 | 267524 | 293020
13 | 65:06.71 | 5:17.65 | 293021 | 316860

Track 1

Filename C:\Users\Хозяин\Desktop\dZihan & Kamien ‎– Freaks & Icons\01 After.wav

Pre-gap length 0:00:02.00

Peak level 99.9 %
Extraction speed 2.8 X
Track quality 100.0 %
Test CRC F1494B34
Copy CRC F1494B34
Accurately ripped (confidence 19) [AE2FAAFB] (AR v2)
Copy OK

Track 2

Filename C:\Users\Хозяин\Desktop\dZihan & Kamien ‎– Freaks & Icons\02 Dabudei.wav

Pre-gap length 0:00:03.00

Peak level 100.0 %
Extraction speed 2.8 X
Track quality 99.9 %
Test CRC C5F7882E
Copy CRC C5F7882E
Accurately ripped (confidence 19) [75A0E063] (AR v2)
Copy OK

Track 3

Filename C:\Users\Хозяин\Desktop\dZihan & Kamien ‎– Freaks & Icons\03 Streets of Istanbul.wav

Pre-gap length 0:00:02.30

Peak level 100.0 %
Extraction speed 3.3 X
Track quality 100.0 %
Test CRC D0309A1C
Copy CRC D0309A1C
Accurately ripped (confidence 19) [A34161FF] (AR v2)
Copy OK

Track 4

Filename C:\Users\Хозяин\Desktop\dZihan & Kamien ‎– Freaks & Icons\04 Before.wav

Pre-gap length 0:00:03.00

Peak level 100.0 %
Extraction speed 3.3 X
Track quality 99.9 %
Test CRC 6495FA28
Copy CRC 6495FA28
Accurately ripped (confidence 20) [D51EFCE5] (AR v2)
Copy OK

Track 5

Filename C:\Users\Хозяин\Desktop\dZihan & Kamien ‎– Freaks & Icons\05 Homebase.wav

Peak level 100.0 %
Extraction speed 3.7 X
Track quality 99.9 %
Test CRC 094AEBBF
Copy CRC 094AEBBF
Accurately ripped (confidence 19) [27352289] (AR v2)
Copy OK

Track 6

Filename C:\Users\Хозяин\Desktop\dZihan & Kamien ‎– Freaks & Icons\06 I Guess She ….wav

Pre-gap length 0:00:02.50

Peak level 79.4 %
Extraction speed 4.0 X
Track quality 100.0 %
Test CRC 9F2BB3B8
Copy CRC 9F2BB3B8
Accurately ripped (confidence 19) [2EF2E9B8] (AR v2)
Copy OK

Track 7

Filename C:\Users\Хозяин\Desktop\dZihan & Kamien ‎– Freaks & Icons\07 Slowhand Hussein.wav

Pre-gap length 0:00:02.30

Peak level 100.0 %
Extraction speed 4.3 X
Track quality 100.0 %
Test CRC F2D2ACFF
Copy CRC F2D2ACFF
Accurately ripped (confidence 19) [5ACED06C] (AR v2)
Copy OK

Track 8

Filename C:\Users\Хозяин\Desktop\dZihan & Kamien ‎– Freaks & Icons\08 Just You & I.wav

Pre-gap length 0:00:01.50

Peak level 99.9 %
Extraction speed 4.2 X
Track quality 100.0 %
Test CRC CAD33A90
Copy CRC CAD33A90
Cannot be verified as accurate (confidence 23) [03CA4067], AccurateRip returned [3647FCD4] (AR v2)
Copy OK

Track 9

Filename C:\Users\Хозяин\Desktop\dZihan & Kamien ‎– Freaks & Icons\09 Colores.wav

Pre-gap length 0:00:03.30

Peak level 100.0 %
Extraction speed 4.4 X
Track quality 100.0 %
Test CRC 27BC0B4E
Copy CRC 27BC0B4E
Accurately ripped (confidence 19) [0AA6065B] (AR v2)
Copy OK

Track 10

Filename C:\Users\Хозяин\Desktop\dZihan & Kamien ‎– Freaks & Icons\10 Ocean Air.wav

Pre-gap length 0:00:03.00

Peak level 100.0 %
Extraction speed 4.4 X
Track quality 99.9 %
Test CRC 71B46DD9
Copy CRC 71B46DD9
Accurately ripped (confidence 18) [33893B59] (AR v2)
Copy OK

Track 11

Filename C:\Users\Хозяин\Desktop\dZihan & Kamien ‎– Freaks & Icons\11 Smile.wav

Pre-gap length 0:00:03.50

Peak level 100.0 %
Extraction speed 4.8 X
Track quality 100.0 %
Test CRC 1BF13D34
Copy CRC 1BF13D34
Accurately ripped (confidence 19) [A59F8F32] (AR v2)
Copy OK

Track 12

Filename C:\Users\Хозяин\Desktop\dZihan & Kamien ‎– Freaks & Icons\12 Where Are We.wav

Pre-gap length 0:00:02.00

Peak level 99.9 %
Extraction speed 4.7 X
Track quality 99.9 %
Test CRC 835A4354
Copy CRC 835A4354
Accurately ripped (confidence 18) [368C53D7] (AR v2)
Copy OK

Track 13

Filename C:\Users\Хозяин\Desktop\dZihan & Kamien ‎– Freaks & Icons\13 Spacewater.wav

Pre-gap length 0:00:03.00

Peak level 100.0 %
Extraction speed 5.4 X
Track quality 100.0 %
Test CRC D507B473
Copy CRC D507B473
Accurately ripped (confidence 18) [40A87F56] (AR v2)
Copy OK

12 треки скопированы точно
1 треки не удалось проверить на точность

Some tracks could not be verified as accurate

No errors occurred

End of status report

---- CUETools DB Plugin V2.1.6

[CTDB TOCID: Kh_kZTYATA9rLk6mF.TUAey9ogc-] found
Submit result: already submitted
Track | CTDB Status
1 | (58/58) Accurately ripped
2 | (58/58) Accurately ripped
3 | (57/58) Accurately ripped
4 | (58/58) Accurately ripped
5 | (57/58) Accurately ripped
6 | (58/58) Accurately ripped
7 | (58/58) Accurately ripped
8 | ( 1/58) Accurately ripped, or (49/58) differs in 179 samples @03:06:12
9 | (58/58) Accurately ripped
10 | (58/58) Accurately ripped
11 | (56/58) Accurately ripped
12 | (55/58) Accurately ripped
13 | (55/58) Accurately ripped
If you are sure that your rip contains errors, you can use CUETools to repair it.

==== Log checksum 1BC1712FA1CA73454000CFD06581F27BDF606BBB98E520DFB1F900199D5483AF ====
REM DATE 2000 
REM DISCID A910800D
REM COMMENT "ExactAudioCopy v1.5"
PERFORMER "dZihan & Kamien"
TITLE "Freaks & Icons"
REM COMPOSER ""
FILE "01 After.wav" WAVE
TRACK 01 AUDIO
TITLE "After"
PERFORMER "dZihan & Kamien"
REM COMPOSER ""
INDEX 01 00:00:00
TRACK 02 AUDIO
TITLE "Dabudei"
PERFORMER "dZihan & Kamien"
REM COMPOSER ""
INDEX 00 07:23:59
FILE "02 Dabudei.wav" WAVE
INDEX 01 00:00:00
TRACK 03 AUDIO
TITLE "Streets of Istanbul"
PERFORMER "dZihan & Kamien"
REM COMPOSER ""
INDEX 00 05:43:40
FILE "03 Streets of Istanbul.wav" WAVE
INDEX 01 00:00:00
TRACK 04 AUDIO
TITLE "Before"
PERFORMER "dZihan & Kamien"
REM COMPOSER ""
INDEX 00 05:05:22
FILE "04 Before.wav" WAVE
INDEX 01 00:00:00
FILE "05 Homebase.wav" WAVE
TRACK 05 AUDIO
TITLE "Homebase"
PERFORMER "dZihan & Kamien"
REM COMPOSER ""
INDEX 01 00:00:00
TRACK 06 AUDIO
TITLE "I Guess She …"
PERFORMER "dZihan & Kamien"
REM COMPOSER ""
INDEX 00 07:19:14
FILE "06 I Guess She ….wav" WAVE
INDEX 01 00:00:00
TRACK 07 AUDIO
TITLE "Slowhand Hussein"
PERFORMER "dZihan & Kamien"
REM COMPOSER ""
INDEX 00 04:12:63
FILE "07 Slowhand Hussein.wav" WAVE
INDEX 01 00:00:00
TRACK 08 AUDIO
TITLE "Just You & I"
PERFORMER "dZihan & Kamien"
REM COMPOSER ""
INDEX 00 05:23:71
FILE "08 Just You & I.wav" WAVE
INDEX 01 00:00:00
TRACK 09 AUDIO
TITLE "Colores"
PERFORMER "dZihan & Kamien"
REM COMPOSER ""
INDEX 00 05:54:09
FILE "09 Colores.wav" WAVE
INDEX 01 00:00:00
TRACK 10 AUDIO
TITLE "Ocean Air"
PERFORMER "dZihan & Kamien"
REM COMPOSER ""
INDEX 00 03:26:03
FILE "10 Ocean Air.wav" WAVE
INDEX 01 00:00:00
TRACK 11 AUDIO
TITLE "Smile"
PERFORMER "dZihan & Kamien"
REM COMPOSER ""
INDEX 00 05:21:53
FILE "11 Smile.wav" WAVE
INDEX 01 00:00:00
TRACK 12 AUDIO
TITLE "Where Are We?"
PERFORMER "dZihan & Kamien"
REM COMPOSER ""
INDEX 00 03:49:21
FILE "12 Where Are We.wav" WAVE
INDEX 01 00:00:00
TRACK 13 AUDIO
TITLE "Spacewater"
PERFORMER "dZihan & Kamien"
REM COMPOSER ""
INDEX 00 05:36:72
FILE "13 Spacewater.wav" WAVE
INDEX 01 00:00:00

Этот торрент недоступен для скачивания без регистрации, однако доступен по публичной magnet-ссылке (источники с публичных трекеров). Перед использованием ссылки прочтите, пожалуйста Пользовательское соглашение, а также как можно дольше оставайтесь на раздаче! Для того, чтобы скачать сам торрент-файл (который видит больше источников), а также для того, чтобы поблагодарить релизера, вам необходимо зарегистрироваться. Если регистрироваться лень - вы можете также попробовать скачать релиз по нашим партнерским ссылкам ниже. Кроме того, зарегистрированным пользователям не показывается всплывающая реклама при скачивании.

[underver.se].t213801.torrent
Трекер: Зарегистрирован   [ 12.07.2021 14:36 ]  
Статус: проверено (by Бишеп at 12.07.2021 14:36)
Поблагодарили: пока никто не поблагодарил...
Тип торрента: публичный - доступные источники с открытых трекеров: 
Размер: 434 MB (занимает 0.1 DVDR, для записи нужно 1 болванка DVDR/RW)
 
 

Яндекс.Метрика powered by Sphinx


В Н И М А Н И Е
Сайт не распространяет и не хранит электронные версии произведений, а лишь бесплатно и без коммерческой выгоды (не требуя взамен платы,
SMS и т.д.) предоставляет доступ к создаваемому пользователями каталогу ссылок на торрент-файлы, которые содержат только списки хеш-сумм.
Убедительная просьба с жалобами обращаться напрямую к пользователю, разместившему торрент файл.

Вверх