Loading...
Error

Discovery Channel. Жизнь с Тиграми (2 части из 2) / Living with Tigers / 2003 () [2003 г., Документальный, животные, природа, TVRip] VO

Статистика раздачи
Размер:  1.11 GB   |    Зарегистрирован:  1 год 2 месяца   |    Скачан:  1 раз

Полного источника не было: 9 месяцев

Сидов:  0  |  0 KB/s  ]   Личеров:  0  |  0 KB/s  ]

* - сиды/пиры с внешних источников

   
 
Автор Сообщение

Andrew616 Пол:Муж

24-Июл-2021 20:27

Discovery Channel. Жизнь с Тиграми (2 части из 2) / Living with Tigers


Год выпуска: 2003
Жанр: Документальный, животные, природа
Страна: США
Сюжет фильма:
Драматичный документальный фильм, посвященный двум бенгальским тиграм — Рону и Джули, которые были рождены в неволе и перевезены в Южную Африку их учителями — натуралистом Джоном Варти и дрессировщиком Дейвом Салмони. Африка не является родиной полосатых и поскольку в Азии численность тигров сокращается, Джон в 2000 году начал проект по перевоспитанию рожденных в неволе тигрят, чтобы сохранить вид за пределами Азии. В естественных условиях тигры могут научиться убивать, только видя, как это делает тигрица-мать, а затем долго тренируясь с ней. Для того чтобы тигрята в период взросления одичали и стали самостоятельными, Джону и Дейву предстоит трудная и опасная задача: разрабатывать различные методы обучения тигров в охоте и навыкам выживания в диких условиях. И как только тигры докажут, что они готовы выживать самостоятельно, они будут выпущены на волю в южноафриканский заповедник.
Качество видео: TVRip

Продолжительность: 2 х ~ 00:45:50
Формат: AVI
Видео: DivX, XviD, ~ 1560 Кбит/с, 640x480, 640x512
Аудио: русский, одноголосый закадровый , (MP3, 1 ch, 128 Кбит/с), (MP3, 2 ch, 128 Кбит/с)
1-я часть: История знакомства Джона Варти с Дейвом Салмони, взросление тигрят и их ознакомление с африканской средой обитания.
2-я часть: Одичание подросших тигров и их готовность к самостоятельной жизни.
• Некоторым может показаться, что это сериал, поэтому заранее уточню: Это целый фильм, который в России был разделён на две части.
• У обеих частей разные голоса озвучки. Качества двух частей также немного отличаются.
• У обеих частей почти одно и тоже превью в начале.

Код:

Общее
Полное имя                               : C:\Users\616\Downloads\Discovery Channel. Living with Tigers\Жизнь с тиграми (1-я часть).avi
Формат                                   : AVI
Формат/Информация                        : Audio Video Interleave
Размер файла                             : 641 Мбайт
Продолжительность                        : 45 м. 23 с.
Общий поток                              : 1 973 Кбит/сек
Программа кодирования                    : VirtualDubMod 1.5.10.2 (build 2540/release)
Библиотека кодирования                   : VirtualDubMod build 2540/release

Видео
Идентификатор                            : 0
Формат                                   : MPEG-4 Visual
Настройки формата                        : BVOP1
Параметр BVOP формата                    : 1
Параметр QPel формата                    : Нет
Параметр GMC формата                     : Без точки перехода
Параметр матрицы формата                 : Default (H.263)
Режим смешивания                         : Сжатый битовый поток
Идентификатор кодека                     : DX50
Идентификатор кодека/Подсказка           : DivX 5
Продолжительность                        : 45 м. 23 с.
Битрейт                                  : 1 836 Кбит/сек
Номинальный битрейт                      : 9 027 Кбит/сек
Ширина                                   : 640 пикселей
Высота                                   : 480 пикселей
Соотношение сторон                       : 4:3
Частота кадров                           : 25,000 кадров/сек
Цветовое пространство                    : YUV
Субдискретизация насыщенности            : 4:2:0
Битовая глубина                          : 8 бит
Тип развёртки                            : Прогрессивная
Метод сжатия                             : С потерями
Бит/(Пиксели*Кадры)                      : 0.239
Размер потока                            : 596 Мбайт (93%)
Библиотека кодирования                   : DivX 6.7.0 (UTC 2007-09-20)

Аудио
Идентификатор                            : 1
Формат                                   : MPEG Audio
Версия формата                           : Version 1
Профиль формата                          : Layer 3
Идентификатор кодека                     : 55
Идентификатор кодека/Подсказка           : MP3
Продолжительность                        : 45 м. 23 с.
Вид битрейта                             : Постоянный
Битрейт                                  : 128 Кбит/сек
Каналы                                   : 1 канал
Частота                                  : 48,0 КГц
Метод сжатия                             : С потерями
Размер потока                            : 41,6 Мбайт (6%)
Выравнивание                             : Соединение по промежуткам
Продолжительность промежутка             : 40  мс. (1,00 видеокадр)
Время предзагрузки промежутка            : 504  мс.

Общее
Полное имя                               : C:\Users\616\Downloads\Discovery Channel. Living with Tigers\Жизнь с тиграми (2-я часть).avi
Формат                                   : AVI
Формат/Информация                        : Audio Video Interleave
Размер файла                             : 497 Мбайт
Продолжительность                        : 46 м. 24 с.
Общий поток                              : 1 498 Кбит/сек

Видео
Идентификатор                            : 0
Формат                                   : MPEG-4 Visual
Профиль формата                          : [email protected]
Параметр BVOP формата                    : Нет
Параметр QPel формата                    : Нет
Параметр GMC формата                     : Без точки перехода
Параметр матрицы формата                 : Default (H.263)
Идентификатор кодека                     : XVID
Идентификатор кодека/Подсказка           : XviD
Продолжительность                        : 46 м. 24 с.
Битрейт                                  : 1 300 Кбит/сек
Ширина                                   : 640 пикселей
Высота                                   : 512 пикселей
Соотношение сторон                       : 5:4
Частота кадров                           : 25,000 кадров/сек
Цветовое пространство                    : YUV
Субдискретизация насыщенности            : 4:2:0
Битовая глубина                          : 8 бит
Тип развёртки                            : Прогрессивная
Метод сжатия                             : С потерями
Бит/(Пиксели*Кадры)                      : 0.159
Размер потока                            : 432 Мбайт (87%)
Библиотека кодирования                   : XviD 1.1.0 (UTC 2005-11-22)

Аудио
Идентификатор                            : 1
Формат                                   : MPEG Audio
Версия формата                           : Version 1
Профиль формата                          : Layer 3
Настройки формата                        : Joint stereo / MS Stereo
Идентификатор кодека                     : 55
Идентификатор кодека/Подсказка           : MP3
Продолжительность                        : 46 м. 24 с.
Вид битрейта                             : Постоянный
Битрейт                                  : 128 Кбит/сек
Каналы                                   : 2 канала
Частота                                  : 48,0 КГц
Метод сжатия                             : С потерями
Размер потока                            : 42,5 Мбайт (9%)
Выравнивание                             : Разделение по промежуткам
Продолжительность промежутка             : 250  мс. (6,25 видеокадров)
Время предзагрузки промежутка            : 208  мс.
Релиз группы:

Этот торрент недоступен для скачивания без регистрации, однако доступен по публичной magnet-ссылке (источники с публичных трекеров). Перед использованием ссылки прочтите, пожалуйста Пользовательское соглашение, а также как можно дольше оставайтесь на раздаче! Для того, чтобы скачать сам торрент-файл (который видит больше источников), а также для того, чтобы поблагодарить релизера, вам необходимо зарегистрироваться. Если регистрироваться лень - вы можете также попробовать скачать релиз по нашим партнерским ссылкам ниже. Кроме того, зарегистрированным пользователям не показывается всплывающая реклама при скачивании.

[underver.se].t215336.torrent
Трекер: Зарегистрирован   [ 24.07.2021 20:27 ]  
Статус: T временная (by Robbertta at 25.07.2021 09:06)
Поблагодарили: пока никто не поблагодарил...
Тип торрента: публичный - доступные источники с открытых трекеров: 
Размер: 1.11 GB (занимает 0.25 DVDR, для записи нужно 1 болванка DVDR/RW)
 
 

Яндекс.Метрика powered by Sphinx


В Н И М А Н И Е
Сайт не распространяет и не хранит электронные версии произведений, а лишь бесплатно и без коммерческой выгоды (не требуя взамен платы,
SMS и т.д.) предоставляет доступ к создаваемому пользователями каталогу ссылок на торрент-файлы, которые содержат только списки хеш-сумм.
Убедительная просьба с жалобами обращаться напрямую к пользователю, разместившему торрент файл.

Вверх