Loading...
Error

(PsyTrance, GoaTrance) Man With No Name - Interstate Highway (2003) [FLAC (Tracks+.Cue), Lossless]

Статистика раздачи
Размер:  419 MB   |    Зарегистрирован:  1 год 2 месяца   |    Скачан:  2 раза
Сидов:  1  |  0 KB/s  ]   Личеров:  0  |  0 KB/s  ]

* - сиды/пиры с внешних источников

   
 
Автор Сообщение

Бишеп Пол:Муж

01-Авг-2021 15:13

Man With No Name - Interstate Highway

Жанр: PsyTrance, GoaTrance
Год выпуска: 2003
Носитель: CD
Производитель диска: Dragonfly Records - BFLCD63
Аудиокодек: FLAC
Тип рипа: Tracks+.CUE
Битрейт аудио: lossless
Продолжительность: 01:07:09


Треклист:
01. Axis Flip (07:26)
02. Space Juice (07:45)
03. Lights Out (05:58)
04. Cocoon (07:27)
05. Visit The Moon (07:54)
06. Reincarnation (06:47)
07. Broken Promise (07:16)
08. East 98 Street (07:21)
09. Pipeline (09:15)

Exact Audio Copy V1.0 beta 3 from 29. August 2011 

EAC extraction logfile from 17. October 2013, 20:02

Man With No Name / Interstate Highway

Used drive : TSSTcorpCDDVDW SN-208BB Adapter: 0 ID: 1

Read mode : Secure
Utilize accurate stream : Yes
Defeat audio cache : Yes
Make use of C2 pointers : No

Read offset correction : 6
Overread into Lead-In and Lead-Out : No
Fill up missing offset samples with silence : Yes
Delete leading and trailing silent blocks : No
Null samples used in CRC calculations : Yes
Used interface : Native Win32 interface for Win NT & 2000
Gap handling : Appended to previous track

Used output format : User Defined Encoder
Selected bitrate : 1024 kBit/s
Quality : High
Add ID3 tag : No
Command line compressor : C:\Program Files (x86)\Exact Audio Copy\FLAC\FLAC.EXE
Additional command line options : -V -8 -T "Genre=%genre%" -T "Artist=%artist%" -T "Title=%title%" -T "Album=%albumtitle%" -T "Date=%year%" -T "Tracknumber=%tracknr%" -T "Comment=%comment%" %source%

TOC of the extracted CD

Track | Start | Length | Start sector | End sector
---------------------------------------------------------
1 | 0:00.00 | 7:25.68 | 0 | 33442
2 | 7:25.68 | 7:44.51 | 33443 | 68293
3 | 15:10.44 | 5:57.38 | 68294 | 95106
4 | 21:08.07 | 7:26.03 | 95107 | 128559
5 | 28:34.10 | 7:53.45 | 128560 | 164079
6 | 36:27.55 | 6:46.18 | 164080 | 194547
7 | 43:13.73 | 7:15.40 | 194548 | 227212
8 | 50:29.38 | 7:20.06 | 227213 | 260218
9 | 57:49.44 | 9:14.36 | 260219 | 301804

Track 1

Filename D:\Мои документы\*другой трекер*tracker.org\Man With No Name ‎– Interstate Highway (Dragonfly Records 2003)\01 - Axis Flip.wav

Pre-gap length 0:00:02.00

Peak level 96.3 %
Extraction speed 1.9 X
Track quality 100.0 %
Test CRC D90C6A44
Copy CRC D90C6A44
Accurately ripped (confidence 10) [A861B5D6] (AR v1)
Copy OK

Track 2

Filename D:\Мои документы\*другой трекер*tracker.org\Man With No Name ‎– Interstate Highway (Dragonfly Records 2003)\02 - Space Juice.wav

Pre-gap length 0:00:00.25

Peak level 96.7 %
Extraction speed 2.3 X
Track quality 100.0 %
Test CRC B29CD95C
Copy CRC B29CD95C
Accurately ripped (confidence 10) [FE1B1691] (AR v1)
Copy OK

Track 3

Filename D:\Мои документы\*другой трекер*tracker.org\Man With No Name ‎– Interstate Highway (Dragonfly Records 2003)\03 - Lights Out.wav

Pre-gap length 0:00:00.41

Peak level 94.6 %
Extraction speed 2.5 X
Track quality 100.0 %
Test CRC 8C119DCF
Copy CRC 8C119DCF
Accurately ripped (confidence 10) [264E2342] (AR v1)
Copy OK

Track 4

Filename D:\Мои документы\*другой трекер*tracker.org\Man With No Name ‎– Interstate Highway (Dragonfly Records 2003)\04 - Cocoon.wav

Pre-gap length 0:00:01.74

Peak level 97.4 %
Extraction speed 2.7 X
Track quality 100.0 %
Test CRC 6292426D
Copy CRC 6292426D
Accurately ripped (confidence 10) [A7D5F2D9] (AR v1)
Copy OK

Track 5

Filename D:\Мои документы\*другой трекер*tracker.org\Man With No Name ‎– Interstate Highway (Dragonfly Records 2003)\05 - Visit The Moon.wav

Pre-gap length 0:00:01.51

Peak level 97.4 %
Extraction speed 3.0 X
Track quality 100.0 %
Test CRC 8110B6A6
Copy CRC 8110B6A6
Accurately ripped (confidence 10) [2B339020] (AR v1)
Copy OK

Track 6

Filename D:\Мои документы\*другой трекер*tracker.org\Man With No Name ‎– Interstate Highway (Dragonfly Records 2003)\06 - Reincarnation.wav

Peak level 96.7 %
Extraction speed 3.2 X
Track quality 100.0 %
Test CRC AB11D50E
Copy CRC AB11D50E
Accurately ripped (confidence 10) [7099B6BA] (AR v1)
Copy OK

Track 7

Filename D:\Мои документы\*другой трекер*tracker.org\Man With No Name ‎– Interstate Highway (Dragonfly Records 2003)\07 - Broken Promise.wav

Pre-gap length 0:00:01.50

Peak level 97.4 %
Extraction speed 3.4 X
Track quality 100.0 %
Test CRC 43DACB64
Copy CRC 43DACB64
Accurately ripped (confidence 10) [93037AA9] (AR v1)
Copy OK

Track 8

Filename D:\Мои документы\*другой трекер*tracker.org\Man With No Name ‎– Interstate Highway (Dragonfly Records 2003)\08 - East 98th Street.wav

Pre-gap length 0:00:00.60

Peak level 97.7 %
Extraction speed 3.5 X
Track quality 100.0 %
Test CRC 777A9B5C
Copy CRC 777A9B5C
Accurately ripped (confidence 10) [BD82E642] (AR v1)
Copy OK

Track 9

Filename D:\Мои документы\*другой трекер*tracker.org\Man With No Name ‎– Interstate Highway (Dragonfly Records 2003)\09 - Pipeline.wav

Pre-gap length 0:00:01.50

Peak level 83.6 %
Extraction speed 3.2 X
Track quality 99.9 %
Test CRC E946E28D
Copy CRC E946E28D
Accurately ripped (confidence 10) [C914D97E] (AR v1)
Copy OK

All tracks accurately ripped

No errors occurred

End of status report

==== Log checksum E50F1EF1B95C7BBA16D9B892FB8050D74BD6C48162E4E97F5FF913C706AA22A7 ====
REM GENRE Goa Trance 
REM DISCID 750FB809
REM COMMENT "ExactAudioCopy v1.0b3"
PERFORMER "Man With No Name"
TITLE "Interstate Highway"
FILE "01 - Axis Flip.wav" WAVE
TRACK 01 AUDIO
TITLE "Axis Flip"
PERFORMER "Man With No Name"
ISRC GBCZL0200050
FLAGS DCP
INDEX 01 00:00:00
TRACK 02 AUDIO
TITLE "Space Juice"
PERFORMER "Man With No Name"
ISRC GBCZL0300070
FLAGS DCP
INDEX 00 07:25:43
FILE "02 - Space Juice.wav" WAVE
INDEX 01 00:00:00
TRACK 03 AUDIO
TITLE "Lights Out"
PERFORMER "Man With No Name"
ISRC GBCZL0200051
FLAGS DCP
INDEX 00 07:44:10
FILE "03 - Lights Out.wav" WAVE
INDEX 01 00:00:00
TRACK 04 AUDIO
TITLE "Cocoon"
PERFORMER "Man With No Name"
ISRC GBCZL0300071
FLAGS DCP
INDEX 00 05:55:39
FILE "04 - Cocoon.wav" WAVE
INDEX 01 00:00:00
TRACK 05 AUDIO
TITLE "Visit The Moon"
PERFORMER "Man With No Name"
ISRC GBCZL0300072
FLAGS DCP
INDEX 00 07:24:27
FILE "05 - Visit The Moon.wav" WAVE
INDEX 01 00:00:00
FILE "06 - Reincarnation.wav" WAVE
TRACK 06 AUDIO
TITLE "Reincarnation"
PERFORMER "Man With No Name"
ISRC GBCZL0300073
FLAGS DCP
INDEX 01 00:00:00
TRACK 07 AUDIO
TITLE "Broken Promise"
PERFORMER "Man With No Name"
ISRC GBCZL0300074
FLAGS DCP
INDEX 00 06:44:43
FILE "07 - Broken Promise.wav" WAVE
INDEX 01 00:00:00
TRACK 08 AUDIO
TITLE "East 98 Street"
PERFORMER "Man With No Name"
ISRC GBCZL0300075
FLAGS DCP
INDEX 00 07:14:55
FILE "08 - East 98 Street.wav" WAVE
INDEX 01 00:00:00
TRACK 09 AUDIO
TITLE "Pipeline"
PERFORMER "Man With No Name"
ISRC GBCZL0300076
FLAGS DCP
INDEX 00 07:18:31
FILE "09 - Pipeline.wav" WAVE
INDEX 01 00:00:00

Этот торрент недоступен для скачивания без регистрации, однако доступен по публичной magnet-ссылке (источники с публичных трекеров). Перед использованием ссылки прочтите, пожалуйста Пользовательское соглашение, а также как можно дольше оставайтесь на раздаче! Для того, чтобы скачать сам торрент-файл (который видит больше источников), а также для того, чтобы поблагодарить релизера, вам необходимо зарегистрироваться. Если регистрироваться лень - вы можете также попробовать скачать релиз по нашим партнерским ссылкам ниже. Кроме того, зарегистрированным пользователям не показывается всплывающая реклама при скачивании.

[underver.se].t216281.torrent
Трекер: Зарегистрирован   [ 01.08.2021 15:13 ]  
Статус: проверено (by Бишеп at 01.08.2021 15:13)
Поблагодарили: пока никто не поблагодарил...
Тип торрента: публичный - доступные источники с открытых трекеров: 
Размер: 419 MB (занимает 0.09 DVDR, для записи нужно 1 болванка DVDR/RW)
 
 

Яндекс.Метрика powered by Sphinx


В Н И М А Н И Е
Сайт не распространяет и не хранит электронные версии произведений, а лишь бесплатно и без коммерческой выгоды (не требуя взамен платы,
SMS и т.д.) предоставляет доступ к создаваемому пользователями каталогу ссылок на торрент-файлы, которые содержат только списки хеш-сумм.
Убедительная просьба с жалобами обращаться напрямую к пользователю, разместившему торрент файл.

Вверх