Loading...
Error

"Артист". Юбилейный концерт Михаила Шуфутинского (2018.11.05) HDTV [H.264/1080i-LQ]

Статистика раздачи
Размер:  9.86 GB   |    Зарегистрирован:  1 год   |    Скачан:  3 раза

Полного источника не было: 3 месяца 21 день

Сидов:  0  |  0 KB/s  ]   Личеров:  0  |  0 KB/s  ]

* - сиды/пиры с внешних источников

   
 
Автор Сообщение

eXtatik Пол:Муж

03-Сен-2021 16:34

"Артист". Юбилейный концерт Михаила Шуфутинского (2018.11.05) HDTV

Производство: Россия, НТВ
Жанр: ТВ-шоу, концерт

Режиссер: Георгий Новиков
Участники: Михаил Шуфутинский, Тамара Гвердцители, Лев Лещенко, Любовь Успенская, Стас Михайлов, Елена Воробей, Денис Клявер, Александр Розенбаум, Хор Турецкого, Александр Буйнов и др.

Описание:
Заслуженный артист Российской Федерации Михаил Шуфутинский в этом году отмечает 70 летний юбилей. В честь этого события он приглашает зрителей НТВ на свой творческий вечер. На сцене концертного зала Crocus City Hall артист исполнит свои главные хиты: «У вокзала», «Москва — Владивосток», «Сгорая плачут свечи», «Ты у меня единственная», «Обожаю», «Я просто медленно люблю», «Люба-Любонька». Поздравить юбиляра соберутся именитые звезды отечественной эстрады.

Продолжительность: 01:49:40
Качество видео: HDTV
Субтитры: Отсутствуют

Видео: AVC/H.264, 1920x1080 (16:9), ~12.0 Mbps, 25.00 fps
Аудио: MP2, 2 ch, 48.0 kHz, 192 kbps CBR
Треклист:
01. Михаил Шуфутинский - У вокзала
02. Михаил Шуфутинский - Москва-Владивосток
03. Михаил Шуфутинский и Елена Воробей - Беспризорник
04. Михаил Шуфутинский - Сгорая плачут свечи
05. Михаил Шуфутинский и Анастасия Спиридонова - Питер-Москва
06. Михаил Шуфутинский - Левый берег Дона
07. Вячеслав Добрынин и Анастасия Макеева - Ты у меня единственная
08. Михаил Шуфутинский и Лев Лещенко - Обожаю тебя
09. Михаил Шуфутинский - Я просто медленно люблю
10. Михаил Шуфутинский и Хор Турецкого - Серёга
11. Михаил Шуфутинский и Стас Михайлов - Соло
12. Михаил Шуфутинский и Александр Розенбаум - Заходите к нам на огонёк
13. Михаил Шуфутинский и Александр Розенбаум - Еврейский портной
14. Михаил Шуфутинский и Валерий Курас - Супчик из морской капусты
15. Михаил Шуфутинский и Александр Буйнов - Налетчики
16. Михаил Шуфутинский и Любовь Успенская - Люба-Любонька
17. Михаил Шуфутинский - Бутылка вина
18. Михаил Шуфутинский и Тамара Гвердцители - Душа болит
19. Михаил Шуфутинский - Наколочка
20. Михаил Шуфутинский и Денис Клявер - Пусть тебе присниться Пальма-де-Майорка
21. Михаил Шуфутинский - Провинциальный Джаз-Бэнд
22. Михаил Шуфутинский - Третье сентября
23. Михаил Шуфутинский - Марджанджа
24. Михаил Шуфутинский - Артист
 
General
ID : 1 (0x1)
Complete name : D:\Артист_Юбилейный концерт Михаила Шуфутинского_2018_11_05.ts
Format : MPEG-TS
File size : 9.86 GiB
Duration : 1 h 49 min
Overall bit rate mode : Variable
Overall bit rate : 12.9 Mb/s

Video
ID : 201 (0xC9)
Menu ID : 2201 (0x899)
Format : AVC
Format/Info : Advanced Video Codec
Format profile : [email protected]
Format settings : CABAC / 4 Ref Frames
Format settings, CABAC : Yes
Format settings, ReFrames : 4 frames
Format settings, GOP : M=4, N=28
Codec ID : 27
Duration : 1 h 49 min
Bit rate : 12.0 Mb/s
Width : 1 920 pixels
Height : 1 080 pixels
Display aspect ratio : 16:9
Frame rate : 25.000 FPS
Standard : Component
Color space : YUV
Chroma subsampling : 4:2:0
Bit depth : 8 bits
Scan type : Interlaced
Scan type, store method : Separated fields
Scan order : Top Field First
Bits/(Pixel*Frame) : 0.232
Stream size : 9.22 GiB (94%)
Color range : Limited
Color primaries : BT.709
Transfer characteristics : BT.709
Matrix coefficients : BT.709

Audio
ID : 301 (0x12D)
Menu ID : 2201 (0x899)
Format : MPEG Audio
Format version : Version 1
Format profile : Layer 2
Codec ID : 3
Duration : 1 h 49 min
Bit rate mode : Constant
Bit rate : 192 kb/s
Channel(s) : 2 channels
Sampling rate : 48.0 kHz
Frame rate : 41.667 FPS (1152 SPF)
Compression mode : Lossy
Stream size : 151 MiB (1%)
Language : Russian

Скриншоты:
pic pic pic pic

Этот торрент недоступен для скачивания без регистрации, однако доступен по публичной magnet-ссылке (источники с публичных трекеров). Перед использованием ссылки прочтите, пожалуйста Пользовательское соглашение, а также как можно дольше оставайтесь на раздаче! Для того, чтобы скачать сам торрент-файл (который видит больше источников), а также для того, чтобы поблагодарить релизера, вам необходимо зарегистрироваться. Если регистрироваться лень - вы можете также попробовать скачать релиз по нашим партнерским ссылкам ниже. Кроме того, зарегистрированным пользователям не показывается всплывающая реклама при скачивании.

[underver.se].t220160.torrent
Трекер: Зарегистрирован   [ 03.09.2021 16:34 ]  
Статус: проверено (by eXtatik at 03.09.2021 16:34)
Поблагодарили: пока никто не поблагодарил...
Тип торрента: публичный - доступные источники с открытых трекеров: 
Размер: 9.86 GB (занимает 2.25 DVDR, для записи нужно 3 болванки DVDR/RW)
 
 

Яндекс.Метрика powered by Sphinx


В Н И М А Н И Е
Сайт не распространяет и не хранит электронные версии произведений, а лишь бесплатно и без коммерческой выгоды (не требуя взамен платы,
SMS и т.д.) предоставляет доступ к создаваемому пользователями каталогу ссылок на торрент-файлы, которые содержат только списки хеш-сумм.
Убедительная просьба с жалобами обращаться напрямую к пользователю, разместившему торрент файл.

Вверх