Loading...
Error

Уральские пельмени. Азбука Уральских пельменей. «Щ» [эфир от 24.09.2021 г., тв-шоу, юмор, сатира, развлекательный, WEB-DL 1080p]

Статистика раздачи
Размер:  1.87 GB   |    Зарегистрирован:  1 год   |    Скачан:  8 раз

Полного источника не было: 2 месяца 20 дней

Сидов:  0  |  0 KB/s  ]   Личеров:  0  |  0 KB/s  ]

* - сиды/пиры с внешних источников

   
 
Автор Сообщение

FiNikola Пол:Муж

25-Сен-2021 01:49

Уральские пельмени. Азбука Уральских пельменей. «Щ» [эфир от 24.09]


Название: Уральские пельмени. Азбука Уральских пельменей. «Щ»
Год выхода: 2021
Жанр: ТВ-шоу, юмор, сатира, развлекательный
Режиссёр: Константин Куц, Леонид Коновалов, Анастасия Гуделова
В главных ролях: Дмитрий Брекоткин, Сергей Ершов, Сергей Исаев, Сергей Калугин, Вячеслав Мясников, Александр Попов, Андрей Рожков, Дмитрий Соколов (V), Максим Ярица, Стефания-Марьяна Гурская, Илана Юрьева, Ксения Корнева

Описание:
То, что осталось за кадром, невошедшее, самые смешные ляпы - это Азбука Уральских пельменей. «Щ»



Страна: Россия
Студия: YBW Group, СТС
Продолжительность: 01:13:00
Язык: Русский

Дата эфира: 24 сентября 2021 года (СТС)
Примечание: Без рекламы

Формат: MKV
Качество: WEB-DL 1080p
Видео: MPEG-4 AVC, 3500 кбит/с, 1920x1080
Звук: AC3, 2 ch, 192 Кбит/с
Субтитры: Отсутствуют
Семпл
Общее
Уникальный идентификатор : 146854039245557054993650049387735326416 (0x6E7B0F255A92403AFBAA0B8FB0109ED0)
Полное имя : D:Uralskie.pelmeni.24.09.2021.WEB-DL.1080p.mkv
Формат : Matroska
Версия формата : Version 4
Размер файла : 1,87 Гбайт
Продолжительность : 1 ч. 12 м.
Общий поток : 3 689 Кбит/сек
Название фильма : Uralskie.pelmeni.24.09.2021.WEB-DL.1080p
Дата кодирования : UTC 2021-09-24 18:24:24
Программа кодирования : mkvmerge v60.0.0 ('Are We Copies?') 64-bit
Библиотека кодирования : libebml v1.4.2 + libmatroska v1.6.4
Attachments : poster.jpg

Видео
Идентификатор : 1
Формат : AVC
Формат/Информация : Advanced Video Codec
Профиль формата : [email protected]
Настройки формата : CABAC / 5 Ref Frames
Параметр CABAC формата : Да
Параметр RefFrames формата : 5 кадров
Идентификатор кодека : V_MPEG4/ISO/AVC
Продолжительность : 1 ч. 12 м.
Битрейт : 3 494 Кбит/сек
Ширина : 1 920 пикселей
Высота : 1 080 пикселей
Соотношение сторон : 16:9
Режим частоты кадров : Постоянный
Частота кадров : 25,000 кадров/сек
Стандарт вещания : PAL
Цветовое пространство : YUV
Субдискретизация насыщенности : 4:2:0
Битовая глубина : 8 бит
Тип развёртки : Прогрессивная
Бит/(Пиксели*Кадры) : 0.067
Размер потока : 1,78 Гбайт (95%)
Default : Да
Forced : Нет
Цветовой диапазон : Limited
Основные цвета : BT.709
Характеристики трансфера : BT.709
Коэффициенты матрицы : BT.709

Аудио
Идентификатор : 2
Формат : AC-3
Формат/Информация : Audio Coding 3
Коммерческое название : Dolby Digital
Идентификатор кодека : A_AC3
Продолжительность : 1 ч. 12 м.
Вид битрейта : Постоянный
Битрейт : 192 Кбит/сек
Каналы : 2 канала
Channel layout : L R
Частота : 48,0 КГц
Частота кадров : 31,250 кадров/сек (1536 SPF)
Метод сжатия : С потерями
Размер потока : 99,9 Мбайт (5%)
Service kind : Complete Main
Default : Да
Forced : Нет

Этот торрент недоступен для скачивания без регистрации, однако доступен по публичной magnet-ссылке (источники с публичных трекеров). Перед использованием ссылки прочтите, пожалуйста Пользовательское соглашение, а также как можно дольше оставайтесь на раздаче! Для того, чтобы скачать сам торрент-файл (который видит больше источников), а также для того, чтобы поблагодарить релизера, вам необходимо зарегистрироваться. Если регистрироваться лень - вы можете также попробовать скачать релиз по нашим партнерским ссылкам ниже. Кроме того, зарегистрированным пользователям не показывается всплывающая реклама при скачивании.

[underver.se].t222513.torrent
Трекер: Зарегистрирован   [ 25.09.2021 01:49 ]  
Статус: проверено (by FiNikola at 25.09.2021 01:49)
Поблагодарили: пока никто не поблагодарил...
Тип торрента: публичный - доступные источники с открытых трекеров: 
Размер: 1.87 GB (занимает 0.43 DVDR, для записи нужно 1 болванка DVDR/RW)
 
 

Яндекс.Метрика powered by Sphinx


В Н И М А Н И Е
Сайт не распространяет и не хранит электронные версии произведений, а лишь бесплатно и без коммерческой выгоды (не требуя взамен платы,
SMS и т.д.) предоставляет доступ к создаваемому пользователями каталогу ссылок на торрент-файлы, которые содержат только списки хеш-сумм.
Убедительная просьба с жалобами обращаться напрямую к пользователю, разместившему торрент файл.

Вверх