Loading...
Error

(Vocal Jazz) Sarah Vaughan - Sarah Vaughan's Finest Hour (2000) [FLAC (Tracks+.Cue), Lossless]

Статистика раздачи
Размер:  282 MB   |    Зарегистрирован:  1 год   |    Скачан:  3 раза

Полного источника не было: 4 месяца 11 дней

Сидов:  0  |  0 KB/s  ]   Личеров:  0  |  0 KB/s  ]

* - сиды/пиры с внешних источников

   
 
Автор Сообщение

Бишеп Пол:Муж

29-Сен-2021 06:20

Sarah Vaughan - Sarah Vaughan's Finest Hour

Жанр: Vocal Jazz
Год выпуска: 2000
Носитель: CD
Производитель диска: Verve Records - 314 543 597-2
Аудиокодек: FLAC
Тип рипа: Tracks+.CUE
Битрейт аудио: lossless
Продолжительность: 01:02:10


Треклист:
01. Misty (03:01)
02. How High the Moon (02:38)
03. I'm Glad There Is You (05:12)
04. Make Yourself Comfortable (02:42)
05. Lush Life (04:04)
06. What Is This Thing Called Love? (02:07)
07. The Other Half of Me (03:01)
08. Dedicated to You (02:48)
09. It Never Entered My Mind (03:43)
10. Shulie a Bop (02:41)

X Lossless Decoder version 20170710 (150.2) 

XLD extraction logfile from 2017-07-30 10:47:18 -0700

Sarah Vaughan / Sarah Vaughan's Finest Hour

Used drive : TSSTcorp BDDVDW SE-506BB (revision TS00)
Media type : Pressed CD

Ripper mode : XLD Secure Ripper
Disable audio cache : OK for the drive with a cache less than 1375KiB
Make use of C2 pointers : NO
Read offset correction : 6
Max retry count : 100
Gap status : Analyzed, Appended (except HTOA)

TOC of the extracted CD
Track | Start | Length | Start sector | End sector
---------------------------------------------------------
1 | 00:00:00 | 03:01:35 | 0 | 13609
2 | 03:01:35 | 02:37:52 | 13610 | 25436
3 | 05:39:12 | 05:11:43 | 25437 | 48804
4 | 10:50:55 | 02:42:37 | 48805 | 60991
5 | 13:33:17 | 04:03:40 | 60992 | 79256
6 | 17:36:57 | 02:06:43 | 79257 | 88749
7 | 19:43:25 | 03:01:20 | 88750 | 102344
8 | 22:44:45 | 02:48:12 | 102345 | 114956
9 | 25:32:57 | 03:42:45 | 114957 | 131651
10 | 29:15:27 | 02:41:28 | 131652 | 143754
11 | 31:56:55 | 03:19:30 | 143755 | 158709
12 | 35:16:10 | 02:25:32 | 158710 | 169616
13 | 37:41:42 | 04:24:15 | 169617 | 189431
14 | 42:05:57 | 04:00:40 | 189432 | 207471
15 | 46:06:22 | 03:14:00 | 207472 | 222021
16 | 49:20:22 | 03:52:38 | 222022 | 239459
17 | 53:12:60 | 03:19:20 | 239460 | 254404
18 | 56:32:05 | 05:37:70 | 254405 | 279749

List of alternate offset correction values
# | Absolute | Relative | Confidence
------------------------------------------
1 | -738 | -744 | 6
2 | -23 | -29 | 2

AccurateRip Summary (DiscID: 00269c7c-0204678b-0a0e9212)
Track 01 : OK (v1+v2, confidence 42/71)
Track 02 : OK (v1+v2, confidence 42/71)
Track 03 : OK (v1+v2, confidence 41/70)
Track 04 : OK (v1+v2, confidence 42/71)
Track 05 : OK (v1+v2, confidence 43/72)
Track 06 : OK (v1+v2, confidence 43/72)
Track 07 : OK (v1+v2, confidence 42/71)
Track 08 : OK (v1+v2, confidence 43/72)
Track 09 : OK (v1+v2, confidence 43/72)
Track 10 : OK (v1+v2, confidence 43/72)
Track 11 : OK (v1+v2, confidence 42/71)
Track 12 : OK (v1+v2, confidence 43/72)
Track 13 : OK (v1+v2, confidence 43/72)
Track 14 : OK (v1+v2, confidence 43/72)
Track 15 : OK (v1+v2, confidence 43/72)
Track 16 : OK (v1+v2, confidence 41/70)
Track 17 : OK (v1+v2, confidence 41/70)
Track 18 : OK (v1+v2, confidence 40/69)
->All tracks accurately ripped.

All Tracks
Album gain : -6.37 dB
Peak : 0.999969
Statistics
Read error : 0
Jitter error (maybe fixed) : 2
Retry sector count : 578
Damaged sector count : 0

Track 01
Filename : /Volumes/Hollywood and Vine/Rips/Sarah Vaughan - Sarah Vaughan's Finest Hour (2000) [FLAC]/01 Misty.flac
Pre-gap length : 00:02:00

Track gain : -1.85 dB
Peak : 0.999969
CRC32 hash (test run) : CB935AF6
CRC32 hash : CB935AF6
CRC32 hash (skip zero) : 89E193C6
AccurateRip v1 signature : 17A03B3E
AccurateRip v2 signature : 2A8583E6
->Accurately ripped (v1+v2, confidence 23+19/71)
Statistics
Read error : 0
Jitter error (maybe fixed) : 0
Retry sector count : 0
Damaged sector count : 0

Track 02
Filename : /Volumes/Hollywood and Vine/Rips/Sarah Vaughan - Sarah Vaughan's Finest Hour (2000) [FLAC]/02 How High the Moon.flac
Pre-gap length : 00:02:70

Track gain : -10.05 dB
Peak : 0.999969
CRC32 hash (test run) : 2D641093
CRC32 hash : 2D641093
CRC32 hash (skip zero) : C06DC150
AccurateRip v1 signature : 7A903B01
AccurateRip v2 signature : 2FCD30B6
->Accurately ripped (v1+v2, confidence 23+19/71)
Statistics
Read error : 0
Jitter error (maybe fixed) : 0
Retry sector count : 0
Damaged sector count : 0

Track 03
Filename : /Volumes/Hollywood and Vine/Rips/Sarah Vaughan - Sarah Vaughan's Finest Hour (2000) [FLAC]/03 I'm Glad There Is You.flac
Pre-gap length : 00:02:60

Track gain : -4.54 dB
Peak : 0.849915
CRC32 hash (test run) : 3D0FA4A3
CRC32 hash : 3D0FA4A3
CRC32 hash (skip zero) : 4917B016
AccurateRip v1 signature : FBB22FB4
AccurateRip v2 signature : E06C2264
->Accurately ripped (v1+v2, confidence 23+18/70)
Statistics
Read error : 0
Jitter error (maybe fixed) : 0
Retry sector count : 1
Damaged sector count : 0

Track 04
Filename : /Volumes/Hollywood and Vine/Rips/Sarah Vaughan - Sarah Vaughan's Finest Hour (2000) [FLAC]/04 Make Yourself Comfortable.flac
Pre-gap length : 00:02:68

Track gain : -1.77 dB
Peak : 0.920929
CRC32 hash (test run) : EFC787EC
CRC32 hash : EFC787EC
CRC32 hash (skip zero) : 5BAD1C0E
AccurateRip v1 signature : 44B3B748
AccurateRip v2 signature : 7157DA92
->Accurately ripped (v1+v2, confidence 23+19/71)
Statistics
Read error : 0
Jitter error (maybe fixed) : 0
Retry sector count : 0
Damaged sector count : 0

Track 05
Filename : /Volumes/Hollywood and Vine/Rips/Sarah Vaughan - Sarah Vaughan's Finest Hour (2000) [FLAC]/05 Lush Life.flac
Pre-gap length : 00:02:60

Track gain : -7.75 dB
Peak : 0.996735
CRC32 hash (test run) : 293FD892
CRC32 hash : 293FD892
CRC32 hash (skip zero) : 708787CF
AccurateRip v1 signature : 217B9DCC
AccurateRip v2 signature : ED50E5A2
->Accurately ripped (v1+v2, confidence 23+20/72)
Statistics
Read error : 0
Jitter error (maybe fixed) : 0
Retry sector count : 0
Damaged sector count : 0

Track 06
Filename : /Volumes/Hollywood and Vine/Rips/Sarah Vaughan - Sarah Vaughan's Finest Hour (2000) [FLAC]/06 What Is This Thing Called Love.flac
Pre-gap length : 00:02:25

Track gain : -7.37 dB
Peak : 0.999969
CRC32 hash (test run) : 5E51B736
CRC32 hash : 5E51B736
CRC32 hash (skip zero) : DDED82D5
AccurateRip v1 signature : 6FE1BE51
AccurateRip v2 signature : 8E11C139
->Accurately ripped (v1+v2, confidence 23+20/72)
Statistics
Read error : 0
Jitter error (maybe fixed) : 0
Retry sector count : 0
Damaged sector count : 0

Track 07
Filename : /Volumes/Hollywood and Vine/Rips/Sarah Vaughan - Sarah Vaughan's Finest Hour (2000) [FLAC]/07 The Other Half of Me.flac
Pre-gap length : 00:02:35

Track gain : -6.10 dB
Peak : 0.928864
CRC32 hash (test run) : 6D25A988
CRC32 hash : 6D25A988
CRC32 hash (skip zero) : 2E0E1B05
AccurateRip v1 signature : 389BBCE9
AccurateRip v2 signature : 415E66E4
->Accurately ripped (v1+v2, confidence 23+19/71)
Statistics
Read error : 0
Jitter error (maybe fixed) : 0
Retry sector count : 0
Damaged sector count : 0

Track 08
Filename : /Volumes/Hollywood and Vine/Rips/Sarah Vaughan - Sarah Vaughan's Finest Hour (2000) [FLAC]/08 Dedicated to You.flac
Pre-gap length : 00:03:08

Track gain : -6.58 dB
Peak : 0.996735
CRC32 hash (test run) : 3A76273E
CRC32 hash : 3A76273E
CRC32 hash (skip zero) : 9D039B25
AccurateRip v1 signature : 5982245F
AccurateRip v2 signature : C18E3687
->Accurately ripped (v1+v2, confidence 23+20/72)
Statistics
Read error : 0
Jitter error (maybe fixed) : 0
Retry sector count : 0
Damaged sector count : 0

Track 09
Filename : /Volumes/Hollywood and Vine/Rips/Sarah Vaughan - Sarah Vaughan's Finest Hour (2000) [FLAC]/09 It Never Entered My Mind.flac
Pre-gap length : 00:02:52

Track gain : -7.52 dB
Peak : 0.996735
CRC32 hash (test run) : 5E539EDD
CRC32 hash : 5E539EDD
CRC32 hash (skip zero) : 95E22E4D
AccurateRip v1 signature : 1B1E6052
AccurateRip v2 signature : 5A0EB1CF
->Accurately ripped (v1+v2, confidence 23+20/72)
Statistics
Read error : 0
Jitter error (maybe fixed) : 1
Retry sector count : 552
Damaged sector count : 0

Track 10
Filename : /Volumes/Hollywood and Vine/Rips/Sarah Vaughan - Sarah Vaughan's Finest Hour (2000) [FLAC]/10 Shulie a Bop.flac
Pre-gap length : 00:03:10

Track gain : -2.51 dB
Peak : 0.868134
CRC32 hash (test run) : E6A6EF01
CRC32 hash : E6A6EF01
CRC32 hash (skip zero) : CBC0F24A
AccurateRip v1 signature : 2DE10624
AccurateRip v2 signature : 2C26D383
->Accurately ripped (v1+v2, confidence 23+20/72)
Statistics
Read error : 0
Jitter error (maybe fixed) : 0
Retry sector count : 0
Damaged sector count : 0

Track 11
Filename : /Volumes/Hollywood and Vine/Rips/Sarah Vaughan - Sarah Vaughan's Finest Hour (2000) [FLAC]/11 Lover Man.flac
Pre-gap length : 00:02:25

Track gain : -4.16 dB
Peak : 0.850952
CRC32 hash (test run) : 7EDB81AF
CRC32 hash : 7EDB81AF
CRC32 hash (skip zero) : 98020CC0
AccurateRip v1 signature : 6B6D3D16
AccurateRip v2 signature : 8D8DF1BF
->Accurately ripped (v1+v2, confidence 23+19/71)
Statistics
Read error : 0
Jitter error (maybe fixed) : 0
Retry sector count : 0
Damaged sector count : 0

Track 12
Filename : /Volumes/Hollywood and Vine/Rips/Sarah Vaughan - Sarah Vaughan's Finest Hour (2000) [FLAC]/12 Broken Hearted Melody.flac
Pre-gap length : 00:03:68

Track gain : -5.49 dB
Peak : 0.999939
CRC32 hash (test run) : F4FE7F0A
CRC32 hash : F4FE7F0A
CRC32 hash (skip zero) : A3E839E9
AccurateRip v1 signature : 74E95568
AccurateRip v2 signature : C020D2FD
->Accurately ripped (v1+v2, confidence 23+20/72)
Statistics
Read error : 0
Jitter error (maybe fixed) : 0
Retry sector count : 0
Damaged sector count : 0

Track 13
Filename : /Volumes/Hollywood and Vine/Rips/Sarah Vaughan - Sarah Vaughan's Finest Hour (2000) [FLAC]/13 My Man's Gone Now.flac
Pre-gap length : 00:02:67

Track gain : -6.03 dB
Peak : 0.999969
CRC32 hash (test run) : CD6AB3F4
CRC32 hash : CD6AB3F4
CRC32 hash (skip zero) : C200BFD8
AccurateRip v1 signature : B8774A44
AccurateRip v2 signature : D0F58F95
->Accurately ripped (v1+v2, confidence 23+20/72)
Statistics
Read error : 0
Jitter error (maybe fixed) : 0
Retry sector count : 0
Damaged sector count : 0

Track 14
Filename : /Volumes/Hollywood and Vine/Rips/Sarah Vaughan - Sarah Vaughan's Finest Hour (2000) [FLAC]/14 Lullaby of Birdland.flac
Pre-gap length : 00:02:40

Track gain : -4.27 dB
Peak : 0.969360
CRC32 hash (test run) : 009DBFAB
CRC32 hash : 009DBFAB
CRC32 hash (skip zero) : 91B3B53D
AccurateRip v1 signature : 5618147D
AccurateRip v2 signature : 8B3E8996
->Accurately ripped (v1+v2, confidence 23+20/72)
Statistics
Read error : 0
Jitter error (maybe fixed) : 0
Retry sector count : 0
Damaged sector count : 0

Track 15
Filename : /Volumes/Hollywood and Vine/Rips/Sarah Vaughan - Sarah Vaughan's Finest Hour (2000) [FLAC]/15 Night Song.flac
Pre-gap length : 00:02:35

Track gain : -5.81 dB
Peak : 0.999939
CRC32 hash (test run) : CFA55963
CRC32 hash : CFA55963
CRC32 hash (skip zero) : 02959C07
AccurateRip v1 signature : FE6AE3D3
AccurateRip v2 signature : 33AACECB
->Accurately ripped (v1+v2, confidence 23+20/72)
Statistics
Read error : 0
Jitter error (maybe fixed) : 0
Retry sector count : 0
Damaged sector count : 0

Track 16
Filename : /Volumes/Hollywood and Vine/Rips/Sarah Vaughan - Sarah Vaughan's Finest Hour (2000) [FLAC]/16 Dreamsville.flac
Pre-gap length : 00:02:07

Track gain : -5.88 dB
Peak : 0.794312
CRC32 hash (test run) : BBC2D532
CRC32 hash : BBC2D532
CRC32 hash (skip zero) : 9C15AE04
AccurateRip v1 signature : 05616427
AccurateRip v2 signature : B38760F5
->Accurately ripped (v1+v2, confidence 23+18/70)
Statistics
Read error : 0
Jitter error (maybe fixed) : 1
Retry sector count : 0
Damaged sector count : 0

Track 17
Filename : /Volumes/Hollywood and Vine/Rips/Sarah Vaughan - Sarah Vaughan's Finest Hour (2000) [FLAC]/17 Star Dust.flac
Pre-gap length : 00:03:40

Track gain : -3.57 dB
Peak : 0.878662
CRC32 hash (test run) : 3F5DF8FD
CRC32 hash : 3F5DF8FD
CRC32 hash (skip zero) : 81E3ED72
AccurateRip v1 signature : CF89014A
AccurateRip v2 signature : 648C7FE6
->Accurately ripped (v1+v2, confidence 23+18/70)
Statistics
Read error : 0
Jitter error (maybe fixed) : 0
Retry sector count : 25
Damaged sector count : 0

Track 18
Filename : /Volumes/Hollywood and Vine/Rips/Sarah Vaughan - Sarah Vaughan's Finest Hour (2000) [FLAC]/18 Sassie's Blues.flac
Pre-gap length : 00:02:25

Track gain : -4.24 dB
Peak : 0.960022
CRC32 hash (test run) : F50263D8
CRC32 hash : F50263D8
CRC32 hash (skip zero) : 1C607D7F
AccurateRip v1 signature : ED0EB40F
AccurateRip v2 signature : DEE8963A
->Accurately ripped (v1+v2, confidence 23+17/69)
Statistics
Read error : 0
Jitter error (maybe fixed) : 0
Retry sector count : 0
Damaged sector count : 0

No errors occurred

End of status report

-----BEGIN XLD SIGNATURE-----
.3nz6Z1WhIkA73KiU1bMyI8nKPNuYEGylfcXYBuME8y4Wo6YqonxOmF3pnABgkA43JRu2bHVfAEaqYrFQaad8yvnJxlda87fKd0lHKq
-----END XLD SIGNATURE-----
TITLE "Sarah Vaughan's Finest Hour" 
PERFORMER "Sarah Vaughan"
CATALOG 0731454359726
REM GENRE "Jazz"
REM DATE "2000"
REM DISCID 0A0E9212
REM REPLAYGAIN_ALBUM_GAIN -6.37 dB
REM REPLAYGAIN_ALBUM_PEAK 0.999969
FILE "01 - Misty.flac" WAVE
TRACK 01 AUDIO
TITLE "Misty"
ISRC USPR35800063
REM REPLAYGAIN_TRACK_GAIN -1.85 dB
REM REPLAYGAIN_TRACK_PEAK 0.999969
INDEX 01 00:00:00
TRACK 02 AUDIO
TITLE "How High the Moon"
ISRC USPR35512100
REM REPLAYGAIN_TRACK_GAIN -10.05 dB
REM REPLAYGAIN_TRACK_PEAK 0.999969
INDEX 00 02:58:40
FILE "02 - How High the Moon.flac" WAVE
INDEX 01 00:00:00
TRACK 03 AUDIO
TITLE "I'm Glad There Is You"
ISRC USPR35412071
REM REPLAYGAIN_TRACK_GAIN -4.54 dB
REM REPLAYGAIN_TRACK_PEAK 0.849915
INDEX 00 02:34:67
FILE "03 - I'm Glad There Is You.flac" WAVE
INDEX 01 00:00:00
TRACK 04 AUDIO
TITLE "Make Yourself Comfortable"
ISRC USPR35412057
REM REPLAYGAIN_TRACK_GAIN -1.77 dB
REM REPLAYGAIN_TRACK_PEAK 0.920929
INDEX 00 05:08:50
FILE "04 - Make Yourself Comfortable.flac" WAVE
INDEX 01 00:00:00
TRACK 05 AUDIO
TITLE "Lush Life"
ISRC USPR35607396
REM REPLAYGAIN_TRACK_GAIN -7.75 dB
REM REPLAYGAIN_TRACK_PEAK 0.996735
INDEX 00 02:39:52
FILE "05 - Lush Life.flac" WAVE
INDEX 01 00:00:00
TRACK 06 AUDIO
TITLE "What Is This Thing Called Love?"
ISRC USPR36370165
REM REPLAYGAIN_TRACK_GAIN -7.37 dB
REM REPLAYGAIN_TRACK_PEAK 0.999969
INDEX 00 04:01:15
FILE "06 - What Is This Thing Called Love.flac" WAVE
INDEX 01 00:00:00
TRACK 07 AUDIO
TITLE "The Other Half of Me"
ISRC USGR10000545
REM REPLAYGAIN_TRACK_GAIN -6.10 dB
REM REPLAYGAIN_TRACK_PEAK 0.928864
INDEX 00 02:04:08
FILE "07 - The Other Half of Me.flac" WAVE
INDEX 01 00:00:00
TRACK 08 AUDIO
TITLE "Dedicated to You"
ISRC USGR10000546
REM REPLAYGAIN_TRACK_GAIN -6.58 dB
REM REPLAYGAIN_TRACK_PEAK 0.996735
INDEX 00 02:58:12
FILE "08 - Dedicated to You.flac" WAVE
INDEX 01 00:00:00
TRACK 09 AUDIO
TITLE "It Never Entered My Mind"
ISRC USPR35602415
REM REPLAYGAIN_TRACK_GAIN -7.52 dB
REM REPLAYGAIN_TRACK_PEAK 0.996735
INDEX 00 02:45:35
FILE "09 - It Never Entered My Mind.flac" WAVE
INDEX 01 00:00:00
TRACK 10 AUDIO
TITLE "Shulie a Bop"
ISRC USPR35400084
REM REPLAYGAIN_TRACK_GAIN -2.51 dB
REM REPLAYGAIN_TRACK_PEAK 0.868134
INDEX 00 03:39:35
FILE "10 - Shulie a Bop.flac" WAVE
INDEX 01 00:00:00
TRACK 11 AUDIO
TITLE "Lover Man"
ISRC USPR35412045
REM REPLAYGAIN_TRACK_GAIN -4.16 dB
REM REPLAYGAIN_TRACK_PEAK 0.850952
INDEX 00 02:39:03
FILE "11 - Lover Man.flac" WAVE
INDEX 01 00:00:00
TRACK 12 AUDIO
TITLE "Broken Hearted Melody"
ISRC USPR35830168
REM REPLAYGAIN_TRACK_GAIN -5.49 dB
REM REPLAYGAIN_TRACK_PEAK 0.999939
INDEX 00 03:15:37
FILE "12 - Broken Hearted Melody.flac" WAVE
INDEX 01 00:00:00
TRACK 13 AUDIO
TITLE "My Man's Gone Now"
ISRC USPR35770175
REM REPLAYGAIN_TRACK_GAIN -6.03 dB
REM REPLAYGAIN_TRACK_PEAK 0.999969
INDEX 00 02:22:40
FILE "13 - My Man's Gone Now.flac" WAVE
INDEX 01 00:00:00
TRACK 14 AUDIO
TITLE "Lullaby of Birdland"
ISRC USPR35400086
REM REPLAYGAIN_TRACK_GAIN -4.27 dB
REM REPLAYGAIN_TRACK_PEAK 0.969360
INDEX 00 04:21:50
FILE "14 - Lullaby of Birdland.flac" WAVE
INDEX 01 00:00:00
TRACK 15 AUDIO
TITLE "Night Song"
ISRC USGR10000547
REM REPLAYGAIN_TRACK_GAIN -5.81 dB
REM REPLAYGAIN_TRACK_PEAK 0.999939
INDEX 00 03:58:05
FILE "15 - Night Song.flac" WAVE
INDEX 01 00:00:00
TRACK 16 AUDIO
TITLE "Dreamsville"
ISRC USPR36470183
REM REPLAYGAIN_TRACK_GAIN -5.88 dB
REM REPLAYGAIN_TRACK_PEAK 0.794312
INDEX 00 03:11:68
FILE "16 - Dreamsville.flac" WAVE
INDEX 01 00:00:00
TRACK 17 AUDIO
TITLE "Star Dust"
ISRC USPR35830192
REM REPLAYGAIN_TRACK_GAIN -3.57 dB
REM REPLAYGAIN_TRACK_PEAK 0.878662
INDEX 00 03:48:73
FILE "17 - Star Dust.flac" WAVE
INDEX 01 00:00:00
TRACK 18 AUDIO
TITLE "Sassy's Blues"
ISRC USPR36301949
REM REPLAYGAIN_TRACK_GAIN -4.24 dB
REM REPLAYGAIN_TRACK_PEAK 0.960022
INDEX 00 03:16:70
FILE "18 - Sassy's Blues.flac" WAVE
INDEX 01 00:00:00

Этот торрент недоступен для скачивания без регистрации, однако доступен по публичной magnet-ссылке (источники с публичных трекеров). Перед использованием ссылки прочтите, пожалуйста Пользовательское соглашение, а также как можно дольше оставайтесь на раздаче! Для того, чтобы скачать сам торрент-файл (который видит больше источников), а также для того, чтобы поблагодарить релизера, вам необходимо зарегистрироваться. Если регистрироваться лень - вы можете также попробовать скачать релиз по нашим партнерским ссылкам ниже. Кроме того, зарегистрированным пользователям не показывается всплывающая реклама при скачивании.

[underver.se].t223037.torrent
Трекер: Зарегистрирован   [ 29.09.2021 06:20 ]  
Статус: проверено (by Бишеп at 29.09.2021 06:21)
Поблагодарили: пока никто не поблагодарил...
Тип торрента: публичный - доступные источники с открытых трекеров: 
Размер: 282 MB (занимает 0.06 DVDR, для записи нужно 1 болванка DVDR/RW)
 
 

Яндекс.Метрика powered by Sphinx


В Н И М А Н И Е
Сайт не распространяет и не хранит электронные версии произведений, а лишь бесплатно и без коммерческой выгоды (не требуя взамен платы,
SMS и т.д.) предоставляет доступ к создаваемому пользователями каталогу ссылок на торрент-файлы, которые содержат только списки хеш-сумм.
Убедительная просьба с жалобами обращаться напрямую к пользователю, разместившему торрент файл.

Вверх